<?xml version="1.0" standalone="no"?>
<!DOCTYPE svg PUBLIC "-//W3C//DTD SVG 1.1//EN" "http://www.w3.org/Graphics/SVG/1.1/DTD/svg11.dtd" >
<svg xmlns="http://www.w3.org/2000/svg">
<metadata>Generated by IcoMoon</metadata>
<defs>
<font id="ic" horiz-adv-x="1024">
<font-face units-per-em="1024" ascent="960" descent="-64" />
<missing-glyph horiz-adv-x="1024" />
<glyph unicode="&#x20;" horiz-adv-x="512" d="" />
<glyph unicode="&#xe900;" glyph-name="disc" d="M921.6 960h-819.2c-56.4 0-102.4-46-102.4-102.4v-921.6l204.8 204.8h716.8c56.4 0 102.4 46 102.4 102.4v614.4c0 56.4-46 102.4-102.4 102.4zM921.6 243.2h-716.8l-102.4-102.4v716.8h819.2v-614.4zM256 499.2h102.4v102.4h-102.4v-102.4zM460.8 499.2h102.4v102.4h-102.4v-102.4zM665.6 499.2h102.4v102.4h-102.4v-102.4z" />
<glyph unicode="&#xe901;" glyph-name="esperienze" d="M512 504.4c31.2 0 56.4-25 56.4-56.4s-25-56.4-56.4-56.4-56.4 25-56.4 56.4 25.2 56.4 56.4 56.4zM230.4 166.4l384.6 178.6 178.6 384.6-384.6-178.6-178.6-384.6zM512 38.4c-225.8 0-409.6 183.8-409.6 409.6s183.8 409.6 409.6 409.6 409.6-183.8 409.6-409.6-183.8-409.6-409.6-409.6zM512 960c-282.6 0-512-229.4-512-512s229.4-512 512-512 512 229.4 512 512-229.4 512-512 512z" />
<glyph unicode="&#xe902;" glyph-name="fatture" d="M818.2 39.6h-612.4v816.8h357.4v-255.2h255.2l-0.2-561.6zM614 958.4h-408.4c-56.2 0-102-46-102-102v-816.8c0-56.2 45.4-102 101.6-102h613.2c56.2 0 102 46 102 102v612.6l-306.4 306.2zM307.8 448h408.4v-102h-408.4v102zM307.8 243.8h408.4v-102h-408.4v102z" />
<glyph unicode="&#xe903;" glyph-name="money" d="M408 577.6c0 43 40.4 73.2 107.6 73.2 70.6 0 97.2-33.8 99.4-84h87.6c-2.6 68.6-44.6 131.6-127.4 152v161.2h-119.2v-160.2c-77.4-16.4-139.2-66.6-139.2-143.8 0-91.6 76.2-137.8 187.4-164.4 99.8-23.6 119.8-58.8 119.8-95.8 0-27.2-20-71.2-107.6-71.2-82 0-114.2 36.8-118.8 84h-88c5.2-87 69.6-136.2 146.4-152v-157.8h119.8v156.2c77.8 14.8 139.2 59.4 139.8 141.8-0.6 112.6-97.2 151.6-187.4 175.2-91 23-120.2 48.2-120.2 85.6zM512 38.4c-225.8 0-409.6 183.8-409.6 409.6s183.8 409.6 409.6 409.6 409.6-183.8 409.6-409.6-183.8-409.6-409.6-409.6zM512 960c-282.6 0-512-229.4-512-512s229.4-512 512-512 512 229.4 512 512-229.4 512-512 512z" />
<glyph unicode="&#xe904;" glyph-name="network" d="M910.2 49.8h-227.6v-113.8h227.6c62.6 0 113.8 51.2 113.8 113.8v227.6h-113.8v-227.6zM910.2 960h-227.6v-113.8h227.6v-227.6h113.8v227.6c0 62.6-51.2 113.8-113.8 113.8zM512 334.2c-62.6 0-113.8 51.2-113.8 113.8s51.2 113.8 113.8 113.8 113.8-51.2 113.8-113.8-51.2-113.8-113.8-113.8zM512 675.6c-125.8 0-227.6-101.8-227.6-227.6s101.8-227.6 227.6-227.6 227.6 101.8 227.6 227.6-101.8 227.6-227.6 227.6zM113.8 846.2h227.6v113.8h-227.6c-62.6 0-113.8-51.2-113.8-113.8v-227.6h113.8v227.6zM113.8 277.4h-113.8v-227.6c0-62.6 51.2-113.8 113.8-113.8h227.6v113.8h-227.6v227.6z" />
<glyph unicode="&#xe905;" glyph-name="news" d="M409.6 601.6h307.2v-102.4h-307.2v102.4zM409.6 751.6h410.6v-102.4h-410.6v102.4zM409.6 448h204.8v-102.4h-204.8v102.4zM921.6 960h-614.4c-56.4 0-102.4-46-102.4-102.4v-102.4h-204.8v-716.8c0-56.4 46-102.4 102.4-102.4h716.8v204.8h102.4c56.4 0 102.4 46 102.4 102.4v614.4c0 56.4-46 102.4-102.4 102.4zM716.8 38.4v0h-614.4v614.4h102.4v-409.6c0-56.4 46-102.4 102.4-102.4h409.6v-102.4zM921.6 243.2h-614.4v614.4h614.4v-614.4z" />
<glyph unicode="&#xe906;" glyph-name="prenotazioni" d="M263.8 404.2h87.6v87.6h-87.6v-87.6zM964.6 754.6v-715.4c0-56.2-45.2-102.2-100.6-102.2h-704c-55.8 0-100.6 46-100.6 102.2l0.6 715.4c0 56.2 44.2 102.2 100 102.2h50.4v102.2h100.6v-102.2h402.2v102.2h100.6v-102.2h50.2c55.2 0 100.6-46 100.6-102.2zM147 667h700.8v87.6h-700.8v-87.6zM147 53.8h700.8v496.4h-700.8v-496.4zM672.6 404.2h87.6v87.6h-87.6v-87.6zM468.2 404.2h87.6v87.6h-87.6v-87.6z" />
<glyph unicode="&#xe907;" glyph-name="user" d="M512 960c-282.6 0-512-229.4-512-512s229.4-512 512-512c282.6 0 512 229.4 512 512s-229.4 512-512 512zM259.6 126.4c22 46 156.2 91.2 252.4 91.2s231-45 252.4-91.2c-69.6-55.2-157.2-88-252.4-88s-182.8 32.8-252.4 88zM837.6 200.8c-73.2 89-250.8 119.2-325.6 119.2s-252.4-30.2-325.6-119.2c-52.2 68.6-84 154.2-84 247.2 0 225.8 183.8 409.6 409.6 409.6s409.6-183.8 409.6-409.6c0-93.2-31.8-178.8-84-247.2zM512 755.2c-99.4 0-179.2-79.8-179.2-179.2s79.8-179.2 179.2-179.2 179.2 79.8 179.2 179.2c0 99.4-79.8 179.2-179.2 179.2zM512 499.2c-42.4 0-76.8 34.2-76.8 76.8s34.2 76.8 76.8 76.8 76.8-34.2 76.8-76.8c0-42.4-34.4-76.8-76.8-76.8z" />
<glyph unicode="&#xe908;" glyph-name="community" d="M538.54 551.28c0 84.4-69.060 153.46-153.46 153.46s-153.46-69.060-153.46-153.46c0-84.4 69.060-153.46 153.46-153.46 84.42 0 153.46 69.060 153.46 153.46zM385.080 500.14c-28.14 0-51.16 23.020-51.16 51.14 0 28.14 23.020 51.16 51.16 51.16s51.16-23.020 51.16-51.16c0-28.14-23.020-51.14-51.16-51.14zM717.58 397.82c56.78 0 102.32 45.52 102.32 102.32 0 56.78-45.52 102.3-102.32 102.3s-102.82-45.52-102.32-102.3c0.020-56.8 45.54-102.32 102.32-102.32zM512.46 960c-282.38 0-511.54-229.16-511.54-511.54 0-282.36 229.16-511.54 511.54-511.54s511.54 229.16 511.54 511.54c0 282.38-229.16 511.54-511.54 511.54zM197.86 187.060c34.78 27.62 116.12 56.78 187.22 56.78 3.58 0 7.68-0.52 11.76-0.52 12.28 32.74 34.28 65.98 66.5 95.14-28.66 5.12-55.76 8.2-78.26 8.2-66.5 0-173.42-23.020-241.96-73.14-25.56 53.2-39.9 112.54-39.9 175.44 0 225.6 183.64 409.24 409.24 409.24s409.24-183.66 409.24-409.24c0-61.38-13.82-119.7-38.36-172.38-51.14 30.18-120.72 44.5-165.74 44.5-77.76 0-230.2-41.44-230.2-138.12v-142.2c-116.14 6.66-219.46 61.9-289.54 146.3z" />
<glyph unicode="&#xe909;" glyph-name="propostecollaborazione" d="M943 313.5h-862v323.26h161.62v-107.74h107.74v107.74h323.24v-107.74h107.74v107.74h161.62v-323.26zM943 44.14h-862v107.74h862v-107.74zM350.38 852.26h323.24v-107.74h-323.24v107.74zM943 744.5h-161.62v107.76c0 59.8-47.94 107.74-107.74 107.74h-323.26c-59.8 0-107.74-47.94-107.74-107.74v-107.74h-161.64c-59.8 0-107.74-47.94-107.74-107.74v-592.62c0-59.8 47.94-107.74 107.74-107.74h862c59.8 0 107.74 47.94 107.74 107.74v592.6c0 59.8-47.94 107.74-107.74 107.74z" />
<glyph unicode="&#xe90a;" glyph-name="assistenza" horiz-adv-x="943" d="M801.18-64v159.4c-0.020 0.698-0.032 1.519-0.032 2.343 0 3.778 0.244 7.499 0.718 11.148l-0.046-0.431c4.58 53.7 26.26 87.7 53.66 130 35.46 54.82 76 117.64 85.64 236.36 1.32 15.34 2 31.26 2.28 47.24v10.96c0 0.21 0.001 0.459 0.001 0.708 0 79.196-21.34 153.408-58.584 217.198l1.104-2.046c-49.894 91.474-132.492 159.822-231.715 189.992l-2.785 0.728c-25.513 8.655-55.318 15.149-86.122 18.258l-1.738 0.142v-315.6c54.672-9.302 100.78-40.147 130.102-83.316l0.438-0.684c21.385-31.312 34.148-69.991 34.148-111.65 0-71.174-37.252-133.646-93.323-168.984l-0.825-0.486c-29.021-18.174-64.284-28.952-102.065-28.952-18.2 0-35.816 2.501-52.523 7.179l1.368-0.327c-38.167-62.648-102.905-105.864-178.161-114.047l-1.059-0.093c-10.596-17.075-29.242-28.276-50.504-28.276-5.637 0-11.089 0.787-16.254 2.258l0.418-0.102c-25.441 7.477-43.7 30.614-43.7 58.015 0 26.555 17.148 49.104 40.974 57.18l0.425 0.125c5.415 1.805 11.65 2.846 18.128 2.846 20.41 0 38.405-10.335 49.039-26.057l0.133-0.209c50.71 6.757 93.734 34.948 120.286 75.008l0.394 0.632c-52.425 36.508-86.303 96.483-86.303 164.371 0 42.5 13.278 81.899 35.911 114.275l-0.428-0.646c29.634 42.522 74.785 72.462 127.082 81.668l1.178 0.172v317.7c-49.631-0.247-97.386-7.883-142.348-21.864l3.448 0.924-3.68-1.12c-59.239-14.402-111.032-40.201-155.289-75.126l0.849 0.646-11.48-9.86v-27.24c-53.040-64.24-85.56-150-94.68-249.080l-84.080-142.52c-7.052-11.511-11.228-25.446-11.228-40.357 0-8.726 1.43-17.118 4.069-24.954l-0.161 0.551c6.925-20.552 22.115-36.709 41.514-44.781l0.486-0.179 50.6-21.040 12.46-136.4c3.121-44.109 25.014-82.549 57.654-107.743l0.346-0.257c24.287-18.741 55.154-30.038 88.659-30.038 10.588 0 20.913 1.128 30.861 3.271l-0.959-0.173 22.66 4.36v-101.020zM531.18 548.22c41.703-0.123 77.407-25.672 92.436-61.955l0.244-0.665c4.818-11.458 7.618-24.776 7.618-38.748 0-27.975-11.222-53.328-29.41-71.805l0.013 0.013c-18.065-18.332-43.164-29.69-70.917-29.69-13.847 0-27.033 2.827-39.014 7.936l0.65-0.246c-36.741 15.802-62 51.687-62 93.472 0 0.080 0 0.16 0 0.24v-0.013c0 56 44.94 101.34 100.3 101.44zM399.9 446.8c0-0.107 0-0.235 0-0.362 0-54.65 33.010-101.589 80.179-121.967l0.861-0.331c14.852-6.388 32.14-10.103 50.295-10.103 36.33 0 69.185 14.875 92.808 38.867l0.016 0.017c23.791 24.128 38.483 57.281 38.483 93.866 0 18.319-3.684 35.777-10.351 51.675l0.328-0.882c-19.98 48.381-66.722 81.84-121.3 82h-0.020c-72.52 0-131.26-59.5-131.3-132.76z" />
<glyph unicode="&#xe90b;" glyph-name="avvisi" horiz-adv-x="1156" d="M995.060 45.26h-833.7c-29.749 0.214-53.782 24.38-53.782 54.159 0 0.155 0.001 0.31 0.002 0.465v-0.024 518.82h941.26v-518.82c0-0.024 0-0.053 0-0.081 0-15.013-6.016-28.622-15.768-38.547l0.008 0.008c-9.677-9.85-23.133-15.961-38.016-15.98h-0.004zM161.36 850.78h833.7c14.883-0.028 28.331-6.145 37.992-15.992l0.008-0.008c9.745-9.92 15.76-23.531 15.76-38.547 0-0.026 0-0.051 0-0.077v0.004-68.26h-941.24v68.26c-0.001 0.131-0.002 0.286-0.002 0.441 0 29.783 24.031 53.953 53.76 54.178h0.021zM995.060 960h-833.7c-89.12 0-161.36-73.34-161.36-163.84v-696.32c0-90.5 72.24-163.84 161.36-163.84h833.7c89.16 0 161.36 73.34 161.36 163.84v696.32c0 90.5-72.22 163.84-161.36 163.84zM524.44 564.060h107.58v-300.38h-107.58v300.38zM524.44 209.060h107.58v-109.22h-107.58v109.22z" />
<glyph unicode="&#xe90c;" glyph-name="bestpractice" d="M772.6 132l-56.84 243.2 194 168c7.258-28.505 11.552-61.287 11.819-95.029l0.001-0.171c0.020-126.98-58.34-240.64-148.98-316zM299 98.82l213 128.5 213-128c-60.615-38.233-134.36-60.919-213.403-60.919-78.71 0-152.166 22.496-214.289 61.408l1.692-0.989zM102.4 448c0.006 33.828 4.302 66.651 12.374 97.956l-0.594-2.716 194-168-56.8-243.24c-91.268 75.514-148.98 188.8-148.98 315.565 0 0.153 0 0.305 0 0.458v-0.023zM488.4 856.58l-102.4-241.66-257.020-22c56.36 147.44 194.6 254.44 359.46 263.66zM634.84 272.9l-122.84 73.72-122.36-73.72 32.36 139.26-108 93.7 142.34 12.28 55.66 131.58 55.8-131.080 142.34-12.28-108-93.7zM894.46 593.4l-256.46 22.020-102.46 241.16c164.46-9.74 302.6-116.22 358.92-263.18zM511.48 960c-282.62 0-511.48-229.38-511.48-512s228.86-512 511.48-512c283.14 0 512.52 229.38 512.52 512s-229.38 512-512.52 512z" />
<glyph unicode="&#xe90d;" glyph-name="cassettaattrezzi" horiz-adv-x="1021" d="M866.897 47.93l-440.64 440.68c-26.057-19.508-57.672-33.046-92.065-37.984l-1.090-0.128c-63.347-9.307-129.943 9.789-178.386 58.172-38.189 37.738-61.84 90.114-61.84 148.014 0 4.299 0.13 8.567 0.387 12.801l-0.028-0.582 143.924-143.924 197.482 197.482-143.924 143.844c3.678 0.231 7.976 0.363 12.305 0.363 115.403 0 208.956-93.553 208.956-208.956 0-13.032-1.193-25.785-3.476-38.156l0.197 1.286c-6.243-35.036-20.69-65.933-41.293-91.693l0.312 0.403 440.158-440.118zM1006.629 122.45l-422.907 422.927c13.575 33.166 21.454 71.655 21.454 111.985 0 83.573-33.836 159.244-88.556 214.060l0.004-0.004c-107.116 107.136-273.908 116.925-392.658 30.289l178.928-179.329-66.195-65.674-178.406 178.386c-86.636-118.349-76.847-285.522 30.269-392.177 86.636-86.636 212.868-109.463 320.947-68.943l424.311-424.331c8.397-8.419 20.009-13.627 32.837-13.627s24.44 5.208 32.836 13.626l107.137 107.137c18.635 17.692 18.635 47.039 0 65.674z" />
<glyph unicode="&#xe90e;" glyph-name="cercafinanziamento" horiz-adv-x="1081" d="M824.92 448c0-47.132-38.208-85.34-85.34-85.34s-85.34 38.208-85.34 85.34c0 47.132 38.208 85.34 85.34 85.34s85.34-38.208 85.34-85.34zM113.78 49.78v796.44h796.44v-113.76h-341.32c-62.761-0.193-113.587-51.019-113.78-113.761v-341.339c0.193-62.761 51.019-113.587 113.761-113.78h341.339v-113.76h-796.44zM967.14 618.66v-341.32h-398.24v341.32zM1024 716.52v129.7c-0.181 62.752-50.991 113.576-113.72 113.78h-796.5c-0.018 0-0.039 0-0.060 0-62.806 0-113.72-50.914-113.72-113.72 0-0.021 0-0.042 0-0.063v0.003-796.44c0-0.012 0-0.026 0-0.040 0-62.817 50.923-113.74 113.74-113.74 0.014 0 0.028 0 0.042 0h796.438c62.761 0.193 113.587 51.019 113.78 113.761v129.719c33.56 19.9 56.9 55.76 56.9 97.86v341.32c0.020 42.1-23.32 77.96-56.9 97.86z" />
<glyph unicode="&#xe90f;" glyph-name="eventi" horiz-adv-x="922" d="M204.8 396.81h102.4v102.4h-102.4v-102.4zM921.62 755.2v-716.8c-0.171-56.485-45.915-102.229-102.384-102.4h-716.836c-0.012 0-0.026 0-0.040 0-56.532 0-102.36 45.828-102.36 102.36 0 0.014 0 0.028 0 0.042v-0.002l0.503 716.8c-0.001 0.137-0.001 0.3-0.001 0.462 0 56.278 45.605 101.904 101.875 101.938h51.213v102.4h102.4v-102.4h409.62v102.4h102.4v-102.4h51.19c56.494-0.16 102.249-45.908 102.42-102.384v-0.016zM102.4 652.8h716.82v102.4h-716.82zM102.4 38.4h716.82v512h-716.82zM614.4 396.81h102.4v102.4h-102.4zM409.6 396.81h102.4v102.4h-102.4z" />
<glyph unicode="&#xe910;" glyph-name="fotogallery" d="M0 755.2v-716.8c0.17-56.485 45.915-102.23 102.384-102.4h716.816v102.4h-716.8v716.8zM486.4 464.9l86.52-115.72 126.98 158.72 170.5-213.5h-512l128 170.5zM921.6 960h-614.4c-56.485-0.17-102.23-45.915-102.4-102.384v-614.416c0.17-56.485 45.915-102.23 102.384-102.4h614.416c56.485 0.17 102.23 45.915 102.4 102.384v614.416c-0.17 56.485-45.915 102.23-102.384 102.4h-0.016zM921.6 243.2h-614.4v614.4h614.4z" />
<glyph unicode="&#xe911;" glyph-name="gestione" d="M910.224 49.776h-796.449v796.449h796.449zM910.224 960h-796.449c-0.006 0-0.013 0-0.020 0-62.825 0-113.756-50.93-113.756-113.756 0-0.007 0-0.014 0-0.021v0.001-796.449c0-0.006 0-0.013 0-0.020 0-62.825 50.93-113.756 113.756-113.756 0.007 0 0.014 0 0.021 0h796.448c0.006 0 0.013 0 0.020 0 62.825 0 113.756 50.93 113.756 113.756 0 0.007 0 0.014 0 0.021v-0.001 796.449c0 0.006 0 0.013 0 0.020 0 62.825-50.93 113.756-113.756 113.756-0.007 0-0.014 0-0.021 0h0.001zM511.99 545.36c53.721 0 97.27-43.549 97.27-97.27s-43.549-97.27-97.27-97.27c-53.721 0-97.27 43.549-97.27 97.27v0c0.182 53.648 43.623 97.089 97.253 97.27h0.017zM182.602 335.937l68.265-117.762c3.098-5.095 8.619-8.446 14.923-8.446 2.202 0 4.309 0.409 6.248 1.155l-0.119-0.040 84.771 34.053c16.564-13.149 35.502-24.42 55.86-32.979l1.588-0.593 12.519-90.46c1.641-8.083 8.634-14.101 17.053-14.222h136.544c8.596 0.158 15.677 6.453 17.052 14.68l0.014 0.103 12.559 90.48c21.936 9.308 40.858 20.566 58.002 33.989l-0.554-0.418 84.771-34.053c1.812-0.699 3.909-1.104 6.1-1.104 6.324 0 11.861 3.373 14.909 8.417l0.044 0.078 68.265 117.762c4.547 7.391 2.284 16.505-4.006 22.194l-72.251 56.327c1.458 9.408 2.29 20.259 2.29 31.305 0 0.593-0.002 1.185-0.007 1.776l0.001-0.091c-0.213 12.086-1.036 23.722-2.444 35.177l0.161-1.606 72.251 56.327c3.893 3.22 6.355 8.051 6.355 13.457 0 3.218-0.872 6.232-2.393 8.819l0.044-0.082-68.265 117.762c-3.1 5.086-8.616 8.43-14.913 8.43-2.206 0-4.316-0.41-6.258-1.159l0.119 0.040-84.771-34.053c-16.564 13.119-35.502 24.365-55.858 32.9l-1.591 0.592-12.519 90.46c-1.641 8.083-8.634 14.101-17.053 14.222h-136.584c-8.596-0.158-15.677-6.453-17.052-14.68l-0.014-0.103-12.519-90.46c-21.945-8.952-40.89-20.039-57.979-33.39l0.53 0.399-84.771 34.053c-1.812 0.699-3.909 1.104-6.1 1.104-6.324 0-11.861-3.373-14.909-8.417l-0.044-0.078-68.265-117.682c-4.547-7.391-2.284-16.505 4.006-22.194l72.251-56.327c-1.703-10.021-2.733-21.632-2.844-33.463l-0.001-0.108c0.213-12.086 1.036-23.722 2.444-35.177l-0.161 1.606-72.272-56.347c-3.668-3.205-5.972-7.891-5.972-13.115 0-3.35 0.948-6.48 2.59-9.134l-0.043 0.075z" />
<glyph unicode="&#xe912;" glyph-name="organizzazioni" horiz-adv-x="1280" d="M576.020 128h512v64c0 85.12-170.88 128-256 128s-256-42.88-256-128v-64zM832.020 384c70.692 0 128 57.308 128 128s-57.308 128-128 128c-70.692 0-128-57.308-128-128v0c0.215-70.606 57.394-127.785 127.979-128h0.021zM1152.020 64h-1024v768h330.88l128-128h565.12v-640zM1152.020 832h-512l-128 128h-384c-70.42 0-127.38-57.62-127.38-128l-0.64-768c0.215-70.606 57.394-127.785 127.979-128h1024.021c70.606 0.215 127.785 57.394 128 127.979v640.021c-0.181 70.598-57.346 127.784-127.919 128h-0.021z" />
<glyph unicode="&#xe913;" glyph-name="progetti" horiz-adv-x="1062" d="M492.16 468.24l164.82 142.92 152.78-142.92v-265.58h-317.6zM464.88 149.32h372.16c0.161-0.003 0.35-0.005 0.54-0.005 14.753 0 26.717 11.938 26.76 26.681v304.004c-0.138 7.624-3.482 14.441-8.736 19.179l-0.024 0.021-178.94 167.46c-9.82 9.58-26.18 9.58-37.1 1.080l-192-167.5c-5.33-5.131-8.688-12.279-8.84-20.212v-304.028c-1.12-14.9 12-26.66 26.18-26.66zM1008.38-10.68h-851.28c-56.76 0-102.58 44.8-102.58 100.26 0 54.42 45.82 99.22 102.58 99.22 45.8 0 86.18-29.88 97.12-72.54 3.28-12.8 16.36-21.34 29.46-20.26 13.080 2.12 24 12.8 24 26.66v680.56h699.66v-814zM54.56 810.68c0 33.080 9.82 57.58 28.4 74.66 16.36 13.88 39.3 21.34 65.46 21.34 51.28 0 105.86-29.88 105.86-73.58v-622.92c-27.28 20.26-60 33.080-97.12 33.080-0.339 0.003-0.74 0.004-1.141 0.004-38.792 0-74.293-14.096-101.658-37.446l0.218 0.182zM1035.66 856.54h-730c-14.28 65.060-88.5 103.46-157.26 103.46-39.26 0-75.28-12.8-101.46-35.2-20.72-18.12-46.94-53.34-46.94-114.12v-721.1c0-85.34 70.94-153.58 157.14-153.58h877.46c0.155-0.003 0.337-0.005 0.52-0.005 14.746 0 26.706 11.927 26.76 26.66v867.245c1.060 14.9-12 26.66-26.22 26.64z" />
<glyph unicode="&#xe914;" glyph-name="sondaggi" d="M682.693 391.102h113.776v-227.551h-113.776zM455.122 732.449h113.776v-568.898h-113.776v568.898zM227.551 561.786h113.776v-398.214h-113.776zM910.224 49.716h-796.449v796.509h796.449zM910.224 959.84h-796.449c-62.703-0.192-113.492-50.925-113.775-113.588v-796.476c0.193-62.759 51.017-113.583 113.757-113.776h796.468c62.759 0.193 113.583 51.017 113.776 113.757v796.468c-0.193 62.759-51.017 113.583-113.757 113.776h-0.019z" />
<glyph unicode="&#xe915;" glyph-name="videoconferenza" d="M512 38.4c-225.8 0-409.6 183.8-409.6 409.6s183.8 409.6 409.6 409.6 409.6-183.8 409.6-409.6-183.8-409.6-409.6-409.6zM512 960c-282.62 0-512-229.38-512-512s229.38-512 512-512 512 229.38 512 512-229.38 512-512 512zM409.6 217.6l307.2 230.4-307.2 230.4z" />
<glyph unicode="&#xe916;" glyph-name="lucchetto" d="M273 607.2c0 132 107 239 239 239s239-107 239-239v-102.4h-478v102.4zM864.8 504.8v102.4c0 194.6-158.4 352.8-352.8 352.8s-352.8-158.2-352.8-352.8v-102.4h-79.6v-568.8h864.8v568.8h-79.6z" />
<glyph unicode="&#xe917;" glyph-name="mail" d="M0.2 709c-0.4-3.6-0.8-7.2-0.8-11v-500c0-41.6 33.4-75 75-75h875.2c41.6 0 75 33.4 75 75v500c0 3.6-0.2 7.4-0.8 11l-433.6-368.8c-45-38.2-112.2-38.2-157 0l-433 368.8zM74.4 773c-9.8 0-19.2-2-27.8-5.4l435.4-370.4c19-16.2 40.2-16.2 59.4 0l435.6 370.8c-8.4 3.2-17.6 5-27.4 5h-875.2z" />
<glyph unicode="&#xe918;" glyph-name="modale" d="M409.6 960h204.8c18.8 0 34.2-15.2 34.2-34.2v-204.8c0-18.8-15.4-34.2-34.2-34.2h-204.8c-18.8 0-34.2 15.2-34.2 34.2v204.8c0 19 15.4 34.2 34.2 34.2zM785 960h205c18.8 0 34-15.2 34-34.2v-204.8c0-18.8-15.2-34.2-34-34.2h-205c-18.8 0-34.2 15.2-34.2 34.2v204.8c0.2 19 15.4 34.2 34.2 34.2zM34.2 960h204.8c18.8 0 34.2-15.2 34.2-34.2v-204.8c0-18.8-15.2-34.2-34.2-34.2h-204.8c-19 0-34.2 15.2-34.2 34.2v204.8c0 19 15.2 34.2 34.2 34.2zM409.6 584.6h204.8c18.8 0 34.2-15.2 34.2-34.2v-204.8c0-18.8-15.4-34.2-34.2-34.2h-204.8c-18.8 0-34.2 15.2-34.2 34.2v204.8c0 18.8 15.4 34.2 34.2 34.2zM785 584.6h205c18.8 0 34-15.2 34-34.2v-204.8c0-18.8-15.2-34.2-34-34.2h-205c-18.8 0-34.2 15.2-34.2 34.2v204.8c0.2 18.8 15.4 34.2 34.2 34.2zM34.2 584.6h204.8c18.8 0 34.2-15.2 34.2-34.2v-204.8c0-18.8-15.2-34.2-34.2-34.2h-204.8c-19 0-34.2 15.2-34.2 34.2v204.8c0 18.8 15.2 34.2 34.2 34.2zM409.6 209h204.8c18.8 0 34.2-15.2 34.2-34v-205c0-18.8-15.4-34.2-34.2-34.2h-204.8c-18.8 0-34.2 15.2-34.2 34.2v205c0 18.8 15.4 34 34.2 34zM785 209h205c18.8 0 34-15.2 34-34v-205c0-18.8-15.2-34.2-34-34.2h-205c-18.8 0-34.2 15.2-34.2 34.2v205c0.2 18.8 15.4 34 34.2 34zM34.2 209h204.8c18.8 0 34.2-15.2 34.2-34v-205c0-18.8-15.2-34.2-34.2-34.2h-204.8c-19 0.2-34.2 15.4-34.2 34.2v205c0 18.8 15.2 34 34.2 34z" />
<glyph unicode="&#xe919;" glyph-name="mio-profilo" horiz-adv-x="1700" d="M850 960c-282.64 0-512-256-512-512s229.36-512 512-512 512 229.38 512 512-229.36 512-512 512zM915.86 65.48l-65.86 47.92-65.86-48 30 77.84-65.94 47.98h77.26l24.54 77.84 24.56-77.84h77.24l-65.8-47.9zM1175.64 200.7c-73.22 89.060-250.9 119.3-325.64 119.3s-252.42-30.24-325.64-119.3c-52.341 67.734-83.924 153.832-84 247.302v0.018c0.020 225.78 183.86 409.58 409.64 409.58s409.62-183.8 409.62-409.6c-0.065-93.48-31.642-179.572-84.68-248.243l0.7 0.943zM1030 576c0-99.411-80.589-180-180-180s-180 80.589-180 180c0 99.411 80.589 180 180 180s180-80.589 180-180z" />
<glyph unicode="&#xe91a;" glyph-name="iniziative" horiz-adv-x="1700" d="M1016.94 362.96c2.22 3.1 4.4 6.28 6.46 9.52 3.334 5.163 6.866 11.37 10.077 17.765l0.543 1.195c-3.754-7.59-7.286-13.797-11.118-19.794l0.498 0.834c-2.060-3.24-4.24-6.48-6.46-9.52zM1054.72 475.020c0 2.38 0 4.74 0 7.12-0.004 34.617-8.602 67.225-23.777 95.808l0.537-1.108c14.638-27.475 23.236-60.083 23.24-94.699v-0.001c0.1-2.38 0.060-4.74 0-7.12zM666 391.44c-2.12 4.32-4.1 8.72-5.9 13.18 1.78-4.46 3.76-8.86 5.9-13.18zM790.98 678.24q9.62 2.88 19.44 4.82-9.8-1.92-19.44-4.82zM918.26 209.060v0 57.36c0.038 7.004 2.177 13.501 5.817 18.902l-0.077-0.122c-3.557-5.281-5.688-11.778-5.72-18.772v-0.008zM843.060 686.8c2.3 0 4.62 0.12 6.94 0.12-2.32 0-4.64-0.040-6.94-0.12zM765.78 668.82c4.12 1.86 8.28 3.56 12.48 5.14-4.26-1.58-8.26-3.28-12.48-5.14zM747.6 659.5q8.9 5.12 18.18 9.32-9.26-4.2-18.18-9.32c-61.639-36.078-102.386-101.959-102.4-177.358v-0.002c-0.002-0.365-0.004-0.797-0.004-1.229 0-9.44 0.648-18.729 1.903-27.824l-0.119 1.054c-1.135 8.042-1.784 17.33-1.784 26.771 0 0.432 0.001 0.864 0.004 1.296v-0.066c0.014 75.401 40.761 141.282 101.434 176.837l0.966 0.523zM810.42 683.060c2.5 0.5 5 0.92 7.5 1.32-2.5-0.38-5-0.82-7.5-1.32zM454.48 799.68c-0.428 1.051-0.84 2.34-1.16 3.664l-0.040 0.196c0.36-1.52 0.772-2.809 1.268-4.054l-0.068 0.194zM985.44 64c-0.354-1.373-0.716-2.492-1.136-3.584l0.076 0.224c0.344 0.868 0.706 1.987 1.009 3.132l0.051 0.228zM962.56 2.74l0.82-0.32zM714.16-22.98c0.46 2.146 1.038 4.006 1.763 5.79l-0.083-0.23c-0.642-1.554-1.22-3.414-1.638-5.333l-0.042-0.227zM716.14-43.16c-0.798 1.822-1.488 3.969-1.96 6.196l-0.040 0.224c0.512-2.451 1.202-4.598 2.085-6.642l-0.085 0.222zM952.4-64h-204.8c-0.020 0-0.043 0-0.066 0-10.558 0-19.991 4.812-26.228 12.363l-0.046 0.058c6.282-7.608 15.716-12.42 26.274-12.42 0.023 0 0.047 0 0.070 0h204.796c12.885 0.003 24.102 7.144 29.911 17.684l0.089 0.176c-5.898-10.716-17.115-17.857-30-17.86v0zM457.88 792.94c-0.58 0.9-1.12 1.8-1.6 2.72 0.568-1.086 1.099-1.975 1.672-2.834l-0.072 0.114zM532.56 730.98c-3.457 0.052-6.766 0.604-9.885 1.587l0.245-0.067c2.874-0.916 6.183-1.468 9.613-1.52h0.027zM980.7-10.78c-3.093 4.544-7.119 8.225-11.824 10.831l-0.176 0.089c4.881-2.695 8.907-6.376 11.924-10.802l0.076-0.118zM721.26-51.58c-1.33 1.594-2.549 3.374-3.592 5.266l-0.088 0.174c1.131-2.066 2.35-3.846 3.724-5.494l-0.044 0.054zM725.88 98.88c1.593 1.31 3.373 2.522 5.258 3.568l0.182 0.092c-2.067-1.138-3.847-2.35-5.502-3.709l0.062 0.049zM744.1 38.58c-2.467 0.242-4.728 0.722-6.888 1.424l0.228-0.064c1.932-0.638 4.193-1.118 6.526-1.349l0.134-0.011zM714.46 80.54c0.338 1.424 0.688 2.587 1.096 3.722l-0.076-0.242c-0.332-0.893-0.682-2.056-0.971-3.243l-0.049-0.237zM979.24 93.58c-6.28 7.993-15.947 13.080-26.802 13.080-0.013 0-0.027 0-0.040 0h0.002c0.011 0 0.025 0 0.038 0 10.855 0 20.522-5.087 26.747-13.007l0.055-0.073zM952.4 38.4v0c0.012 0 0.027 0 0.042 0 13.433 0 25.046 7.79 30.569 19.099l0.089 0.201c-5.612-11.51-17.225-19.3-30.658-19.3-0.015 0-0.030 0-0.044 0h0.002zM713.46 72.54v0c0-0.001 0-0.002 0-0.004 0-12.885 7.142-24.102 17.684-29.907l0.176-0.089c-10.718 5.895-17.86 17.111-17.86 29.996 0 0.001 0 0.002 0 0.004v0zM737.44 105.14c1.919 0.616 4.178 1.095 6.505 1.346l0.155 0.014c-2.482-0.265-4.741-0.744-6.909-1.428l0.249 0.068zM1349.58 490c1.701 1.411 3.214 2.931 4.574 4.582l0.046 0.058c-1.406-1.709-2.919-3.229-4.565-4.595l-0.055-0.045zM1247.62 813.12c-0.709 14.728-10.654 26.955-24.138 31.057l-0.242 0.063c13.726-4.165 23.671-16.392 24.377-31.042l0.003-0.078zM1247.64 812.84c0.033-0.55 0.052-1.193 0.052-1.84s-0.019-1.29-0.056-1.928l0.004 0.088c0.033 0.55 0.052 1.193 0.052 1.84s-0.019 1.29-0.056 1.928l0.004-0.088zM1362 516.26c0-0.009 0-0.020 0-0.031 0-8.261-2.946-15.833-7.845-21.725l0.045 0.055c4.842 5.847 7.779 13.424 7.779 21.687 0 10.565-4.802 20.009-12.343 26.268l-0.056 0.045c7.608-6.282 12.42-15.716 12.42-26.274 0-0.009 0-0.019 0-0.028v0.001zM1143.2 789.32c-1.076-1.094-2.079-2.269-2.997-3.511l-0.063-0.089c0.989 1.338 1.992 2.519 3.069 3.629l-0.009-0.009zM1191.34 741.2c-6.17-6.288-14.744-10.198-24.232-10.24h-0.008c9.496 0.042 18.070 3.952 24.235 10.235l48.125 48.125c0.941 1.115 1.849 2.349 2.676 3.64l0.084 0.14c-0.911-1.431-1.819-2.665-2.803-3.833l0.043 0.053zM1246.84 804.12c0-0.48-0.24-0.98-0.36-1.46 0.12 0.48 0.26 0.98 0.36 1.46zM1143.2 741.2c-6.115 6.17-9.893 14.665-9.893 24.042 0 5.79 1.441 11.244 3.983 16.022l-0.090-0.184c-2.421-4.583-3.842-10.017-3.842-15.784 0-18.79 15.092-34.056 33.816-34.336h0.026c-9.407 0.115-17.882 4.011-23.995 10.235l-0.005 0.005zM1259.6 550.4v0c-0.015 0-0.032 0-0.049 0-4.778 0-9.326-0.986-13.452-2.765l0.221 0.085c3.905 1.694 8.453 2.68 13.231 2.68 0.017 0 0.034 0 0.052 0h-0.003zM1344.14 546.28c2.066-1.121 3.847-2.341 5.49-3.721l-0.050 0.041c-1.593 1.339-3.374 2.559-5.27 3.595l-0.17 0.085zM1334.74 549.7c2.444-0.5 4.591-1.19 6.631-2.082l-0.211 0.082c-1.829 0.81-3.977 1.5-6.207 1.963l-0.213 0.037zM1349.58 490c-1.593-1.323-3.374-2.536-5.265-3.572l-0.175-0.088c2.066 1.124 3.847 2.337 5.495 3.705l-0.055-0.045zM1327.86 550.4v0c0.008 0 0.018 0 0.029 0 2.426 0 4.792-0.255 7.073-0.739l-0.222 0.039c-2.060 0.445-4.426 0.7-6.851 0.7-0.010 0-0.020 0-0.030 0h0.002zM1259.6 482.14v0c-0.031 0-0.068 0-0.106 0-4.759 0-9.287 0.986-13.393 2.764l0.218-0.084c3.887-1.694 8.416-2.68 13.174-2.68 0.037 0 0.074 0 0.111 0h-0.006zM1341.16 484.82c-1.822-0.798-3.969-1.487-6.196-1.96l-0.224-0.040c2.451 0.513 4.598 1.202 6.642 2.085l-0.222-0.085zM1239 543.44c1.256 0.978 2.668 1.918 4.148 2.751l0.172 0.089c-1.652-0.922-3.064-1.862-4.397-2.898l0.077 0.058zM1327.86 482.14c2.435 0.002 4.812 0.249 7.108 0.719l-0.228-0.039c-2.068-0.431-4.445-0.678-6.879-0.68h-0.001zM884.14 857.6c0-18.855-15.285-34.14-34.14-34.14v0c18.855 0 34.14 15.285 34.14 34.14v0 68.26c0 0.006 0 0.013 0 0.020 0 5.961-1.534 11.563-4.229 16.434l0.089-0.175c2.594-4.687 4.12-10.277 4.12-16.223 0-0.020 0-0.040 0-0.060v0.003zM717.58 158.66c5.898-10.716 17.115-17.857 30-17.86v0c-12.885 0.003-24.102 7.144-29.911 17.684l-0.089 0.176zM588.1 404.82c16.965-56.348 49.951-103.586 93.624-137.81l0.596-0.45c-44.269 34.674-77.255 81.912-93.717 136.326l-0.503 1.934zM694.38 257.68q-6.14 4.3-12 8.88 5.86-4.56 12-8.88zM828.94 952.7c1.395 1.107 2.957 2.16 4.6 3.087l0.18 0.093c-1.823-1.020-3.385-2.073-4.855-3.237l0.075 0.057zM716.14 161.64c-0.798 1.822-1.488 3.969-1.96 6.196l-0.040 0.224c0.512-2.451 1.202-4.598 2.085-6.642l-0.085 0.222zM1040 404.62c-1.8-4.46-3.78-8.86-6-13.18 2.14 4.32 4.12 8.72 6 13.18zM1034.72 280.98c50.454 46.421 83.306 111.294 87.802 183.844l0.038 0.776c-4.534-73.327-37.387-138.199-87.647-184.444l-0.193-0.176zM1025.32 588c1.32-2.2 2.6-4.4 3.84-6.64-1.16 2.18-2.52 4.38-3.84 6.64zM952.4 140.8v0c0.077-0.001 0.167-0.001 0.258-0.001 11.297 0 21.29 5.582 27.372 14.138l0.070 0.103c-6.152-8.659-16.145-14.241-27.442-14.241-0.091 0-0.182 0-0.272 0.001h0.014zM846.5 823.64c-2.482 0.265-4.741 0.744-6.909 1.428l0.249-0.068c1.919-0.616 4.178-1.095 6.505-1.346l0.155-0.014zM983.18 160.28c-0.584-1.253-1.144-2.283-1.758-3.275l0.078 0.135c0.536 0.857 1.096 1.886 1.598 2.948l0.082 0.192zM676.6 372.48c-3.334 5.163-6.866 11.37-10.077 17.765l-0.543 1.195c3.754-7.59 7.286-13.797 11.118-19.794l-0.498 0.834zM839.84 958.46c1.932 0.638 4.193 1.118 6.526 1.349l0.134 0.011c-2.467-0.242-4.728-0.722-6.888-1.424l0.228 0.064zM1034.72 280.98q-5.46-5-11.22-9.76 5.76 4.78 11.22 9.76zM833.72 827.58c-10.716 5.898-17.857 17.115-17.86 30v0 68.28c0 0.017 0 0.037 0 0.057 0 9.41 3.822 17.926 9.999 24.082l0.001 0.001c-6.178-6.157-10-14.674-10-24.083 0-0.020 0-0.040 0-0.060v0.003-68.26c0-0.003 0-0.008 0-0.012 0-12.888 7.142-24.109 17.684-29.919l0.176-0.089zM1044 674.28c2-2 3.8-3.9 5.66-5.9-1.9 2-3.78 3.98-5.66 5.9zM650.86 433.3q-2.24 9.3-3.6 18.82c0.9-6.34 2.12-12.62 3.6-18.82zM460.54 789.32l48.12-48.12c3.854-3.934 8.648-6.933 14.019-8.634l0.241-0.066c-5.612 1.767-10.406 4.766-14.254 8.694l-0.006 0.006zM351.54 543.44c1.256 0.978 2.668 1.918 4.148 2.751l0.172 0.089c-1.652-0.922-3.064-1.862-4.397-2.898l0.077 0.058zM338.18 519.76c0.24 2.466 0.72 4.727 1.424 6.886l-0.064-0.226c-0.64-1.933-1.12-4.194-1.35-6.528l-0.010-0.132zM458.38 545.24c0.5-0.3 1-0.62 1.48-0.96-0.48 0.34-0.98 0.66-1.48 0.96zM556.8 741.2c-6.095-6.206-14.529-10.096-23.873-10.24h-0.027c18.711 0.316 33.758 15.558 33.758 34.315 0 5.234-1.172 10.195-3.267 14.634l0.089-0.209c2.027-4.237 3.211-9.21 3.211-14.46 0-9.376-3.778-17.87-9.894-24.043l0.003 0.003zM1048.84 432c-1.16-4.66-2.5-9.28-4-13.86 1.5 4.58 2.84 9.2 4 13.86zM860.16 958.46c3.398-1.072 6.356-2.527 9.038-4.356l-0.118 0.076c-2.564 1.753-5.522 3.208-8.679 4.214l-0.241 0.066zM689.22 354.74c-3.020 3.78-5.88 7.68-8.62 11.66 2.74-3.98 5.6-7.88 8.62-11.66zM1247.58 809.16c-0.134-1.869-0.397-3.592-0.784-5.267l0.044 0.227c0.343 1.448 0.606 3.171 0.734 4.931l0.006 0.109zM1077.22 633.52c-6.097 9.101-12.014 16.924-18.33 24.401l0.33-0.401q-4.66 5.56-9.56 10.8 4.92-5.26 9.56-10.8c5.986-7.075 11.903-14.899 17.389-23.038l0.611-0.962zM1029.16 581.3c0.8-1.48 1.62-2.96 2.4-4.46-0.78 1.5-1.56 2.98-2.4 4.46zM1054.72 475.020c-0.373-12.964-1.913-25.345-4.522-37.327l0.242 1.327c2.367 10.655 3.907 23.036 4.273 35.712l0.007 0.288zM762.28 297.14c-24.883 11.756-46.017 27.433-63.55 46.477l-0.13 0.143c17.663-19.187 38.797-34.864 62.451-46.095l1.229-0.525c10.848-5.251 18.404-15.783 19.353-28.164l0.007-0.116c-0.956 12.497-8.512 23.029-19.157 28.191l-0.203 0.089zM853.5 959.82c2.467-0.242 4.728-0.722 6.888-1.424l-0.228 0.064c-1.932 0.638-4.193 1.118-6.526 1.349l-0.134 0.011zM937.72 297.14c-5.671-2.754-10.318-6.844-13.662-11.875l-0.078-0.125c3.422 5.156 8.069 9.246 13.539 11.911l0.201 0.089c32.237 15.257 58.91 37.635 78.81 65.223l0.41 0.597c-20.31-28.185-46.983-50.563-77.992-65.295l-1.228-0.525zM647.26 452.12c-0.1 0.66-0.2 1.3-0.28 2 0.080-0.7 0.18-1.34 0.28-2zM655.14 418.14q-2.42 7.5-4.28 15.16 1.86-7.64 4.28-15.16zM1225.46 516.26c0 0.007 0 0.016 0 0.025 0 11.059 5.28 20.884 13.456 27.094l0.084 0.061c-8.297-6.269-13.603-16.116-13.603-27.202 0-11.741 5.951-22.092 15.002-28.201l0.121-0.077c-9.137 6.216-15.060 16.567-15.060 28.3v0zM818 684.38c7.311 1.233 15.979 2.101 24.789 2.41l0.351 0.010c-9.161-0.319-17.829-1.187-26.321-2.58l1.181 0.16zM825.86 950c0.946 0.94 1.95 1.824 3.006 2.645l0.074 0.055c-1.13-0.876-2.134-1.76-3.082-2.702l0.002 0.002zM1122.56 465.6c0.317 4.926 0.497 10.682 0.497 16.48 0 30.323-4.939 59.493-14.057 86.748l0.559-1.928c8.558-25.327 13.497-54.497 13.497-84.82 0-5.798-0.181-11.554-0.536-17.262l0.039 0.782zM1223.24 844.24c-2.939 0.92-6.318 1.449-9.822 1.449-8.495 0-16.262-3.115-22.222-8.266l0.043 0.037-48.040-48.12 48.14 48.12c5.912 5.101 13.67 8.207 22.152 8.207 3.476 0 6.83-0.522 9.988-1.491l-0.241 0.064zM952.4 140.8v0 0 0 0zM981.5 157.14c-0.44-0.72-0.9-1.42-1.4-2.1 0.5 0.68 0.96 1.38 1.4 2.1zM1077.22 633.52c12.957-19.17 23.918-41.221 31.78-64.692l0.56-1.928c-8.422 25.399-19.383 47.45-32.958 67.593l0.618-0.973zM1140.14 785.72c-1.048-1.35-2.036-2.868-2.895-4.466l-0.085-0.174c0.944 1.772 1.932 3.29 3.036 4.715l-0.056-0.075zM1025.32 588c-36.459 59.686-101.25 98.92-175.205 98.92-0.040 0-0.081 0-0.121 0h0.006c0.034 0 0.074 0 0.115 0 73.955 0 138.746-39.234 174.696-98.023l0.51-0.897zM1246.48 802.66c-0.997-3.633-2.454-6.813-4.339-9.688l0.079 0.128c1.806 2.747 3.263 5.927 4.204 9.323l0.056 0.237zM850 823.46v0 0 0zM880 942.14c-2.71 4.876-6.396 8.901-10.821 11.923l-0.119 0.077c4.544-3.099 8.23-7.124 10.85-11.824l0.090-0.176zM986.52 174.94c-0.011-5.331-1.242-10.372-3.429-14.862l0.089 0.202c2.098 4.288 3.329 9.329 3.34 14.656v70.644c11.915 6.928 22.085 13.86 31.732 21.428l-0.592-0.448c-9.055-7.12-19.225-14.052-29.855-20.284l-1.285-0.696zM1167.1 730.96v0 0 0zM1247.62 813.12c0.005-0.042 0.007-0.091 0.007-0.14s-0.003-0.098-0.008-0.146l0.001 0.006c0.005 0.042 0.007 0.091 0.007 0.14s-0.003 0.098-0.008 0.146l0.001-0.006zM715.84-17.42c0.995 2.541 2.158 4.729 3.536 6.758l-0.076-0.118c-1.302-1.911-2.465-4.099-3.38-6.411l-0.080-0.229zM963.38 2.42c2.055-0.683 3.807-1.454 5.471-2.366l-0.171 0.086c-1.493 0.826-3.245 1.597-5.069 2.212l-0.231 0.068zM462.34 835.66c5.859 5.89 13.859 9.645 22.735 9.998l0.065 0.002c-18.275-0.76-32.802-15.76-32.802-34.152 0-2.827 0.343-5.575 0.991-8.202l-0.049 0.235c-0.609 2.408-0.959 5.172-0.959 8.018 0 9.419 3.83 17.943 10.018 24.101l0.001 0.001zM715.48 84c1.796 4.951 4.524 9.179 8 12.66v0c-3.476-3.481-6.204-7.709-7.924-12.423l-0.076-0.237zM952.4 4.26c3.626-0.001 7.121-0.557 10.406-1.587l-0.246 0.067c-3.039 0.963-6.534 1.519-10.159 1.52h-204.801c-0.022 0-0.048 0-0.075 0-8.25 0-15.813-2.938-21.701-7.825l0.056 0.045c5.832 4.842 13.395 7.78 21.645 7.78 0.026 0 0.053 0 0.079 0h-0.004zM713.46 72.54v0c0.016 2.848 0.38 5.603 1.051 8.235l-0.051-0.235c-0.62-2.397-0.984-5.152-1-7.99v-0.010zM474.54 516.26c0-18.844-15.276-34.12-34.12-34.12-0.007 0-0.014 0-0.021 0h0.001c0.016 0 0.035 0 0.055 0 18.833 0 34.1 15.267 34.1 34.1 0 11.575-5.767 21.803-14.584 27.967l-0.11 0.073c8.918-6.217 14.68-16.424 14.68-27.977 0-0.015 0-0.030 0-0.045v0.002zM440.4 550.4v0c0.012 0 0.025 0 0.039 0 6.657 0 12.865-1.922 18.099-5.242l-0.138 0.082c-5.096 3.238-11.304 5.16-17.961 5.16-0.014 0-0.027 0-0.041 0h0.002zM343.82 497.18c2.5-3.656 5.564-6.72 9.102-9.144l0.118-0.076c-3.656 2.5-6.72 5.564-9.144 9.102l-0.076 0.118zM985-40c-0.743-2.358-1.618-4.384-2.67-6.299l0.090 0.179c0.962 1.736 1.837 3.762 2.513 5.876l0.067 0.244zM351.54 543.44c-3.001-2.255-5.555-4.898-7.646-7.889l-0.074-0.111c2.165 3.102 4.719 5.745 7.632 7.936l0.088 0.064zM985-19.72c-1.075 3.406-2.537 6.37-4.375 9.056l0.075-0.116c1.763-2.57 3.225-5.534 4.234-8.7l0.066-0.24zM979.24 93.58c4.548-5.728 7.298-13.063 7.3-21.039v-0.001c-0.018-3.021-0.419-5.94-1.155-8.723l0.055 0.243c0.681 2.54 1.082 5.459 1.1 8.469v0.011c-0.002 7.977-2.752 15.312-7.354 21.11l0.054-0.070zM460.54 789.34v0c-0.902 1.068-1.777 2.249-2.577 3.483l-0.083 0.137c0.873-1.369 1.749-2.55 2.699-3.667l-0.039 0.047zM588.1 404.82c-2.481 7.9-4.916 17.947-6.773 28.196l-0.247 1.644c-2.646 14.275-4.159 30.7-4.159 47.479 0 150.807 122.253 273.060 273.060 273.060 75.87 0 144.514-30.943 193.999-80.898l0.021-0.021c-49.506 49.976-118.149 80.919-194.019 80.919-150.807 0-273.060-122.253-273.060-273.060 0-16.779 1.513-33.204 4.411-49.146l-0.251 1.668c2.104-11.893 4.539-21.94 7.519-31.75l-0.499 1.91zM556.8 789.34c2.697-2.729 4.937-5.916 6.592-9.432l0.088-0.208c-1.743 3.724-3.983 6.911-6.683 9.643l-48.137 48.117c-5.916 5.112-13.682 8.227-22.175 8.227-0.473 0-0.944-0.010-1.412-0.029l0.067 0.002c0.401 0.017 0.872 0.027 1.345 0.027 8.493 0 16.259-3.114 22.218-8.263l-0.043 0.037zM456.28 795.66c-0.616 1.108-1.223 2.427-1.732 3.793l-0.068 0.207c0.577-1.573 1.184-2.892 1.878-4.155l-0.078 0.155zM984.38 60.7c-0.38-1.020-0.8-2-1.28-3 0.48 0.98 0.9 1.98 1.28 3zM985-40c0.977 3.035 1.54 6.527 1.54 10.15s-0.563 7.115-1.607 10.392l0.067-0.242c0.977-3.035 1.54-6.527 1.54-10.15s-0.563-7.115-1.607-10.392l0.067 0.242zM1143.2 741.2c6.095-6.206 14.529-10.096 23.873-10.24h0.027c9.496 0.042 18.070 3.952 24.235 10.235l48.125 48.125c0.941 1.115 1.849 2.349 2.676 3.64l0.084 0.14c1.806 2.747 3.263 5.927 4.204 9.323l0.056 0.237c0.12 0.48 0.26 0.98 0.36 1.46 0.343 1.448 0.606 3.171 0.734 4.931l0.006 0.109c0.033 0.55 0.052 1.193 0.052 1.84s-0.019 1.29-0.056 1.928l0.004-0.088c0.005 0.042 0.007 0.091 0.007 0.14s-0.003 0.098-0.008 0.146l0.001-0.006c-0.886 18.147-15.815 32.525-34.102 32.525-8.488 0-16.252-3.097-22.224-8.223l0.046 0.038-48.1-48.12c-1.068-1.101-2.071-2.282-2.993-3.526l-0.067-0.094c-1.048-1.35-2.036-2.868-2.895-4.466l-0.085-0.174c-2.444-4.587-3.879-10.032-3.879-15.811 0-9.39 3.789-17.896 9.921-24.071l-0.002 0.002zM815.86 857.6c0-0.009 0-0.020 0-0.030 0-15.228 9.981-28.124 23.759-32.504l0.241-0.066c1.919-0.616 4.178-1.095 6.505-1.346l0.155-0.014c1.048-0.115 2.263-0.18 3.494-0.18 0.002 0 0.004 0 0.006 0v0c18.846 0.011 34.12 15.292 34.12 34.14v0 68.26c0 0.006 0 0.013 0 0.020 0 5.961-1.534 11.563-4.229 16.434l0.089-0.175c-2.71 4.876-6.396 8.901-10.821 11.923l-0.119 0.077c-2.559 1.765-5.508 3.233-8.659 4.253l-0.241 0.067c-1.932 0.638-4.193 1.118-6.526 1.349l-0.134 0.011c-1.050 0.115-2.267 0.18-3.5 0.18s-2.45-0.065-3.649-0.193l0.149 0.013c-2.467-0.242-4.728-0.722-6.888-1.424l0.228 0.064c-2.353-0.731-4.379-1.607-6.289-2.666l0.169 0.086c-1.823-1.020-3.385-2.073-4.855-3.237l0.075 0.057c-1.13-0.876-2.134-1.76-3.082-2.702l0.002 0.002c-6.178-6.157-10-14.674-10-24.083 0-0.020 0-0.040 0-0.060v0.003zM453.28 803.54c0.36-1.52 0.772-2.809 1.268-4.054l-0.068 0.194c0.577-1.573 1.184-2.892 1.878-4.155l-0.078 0.155c0.48-0.92 1.020-1.82 1.6-2.72 0.883-1.371 1.758-2.552 2.703-3.673l-0.043 0.053 48.12-48.12c3.854-3.934 8.648-6.933 14.019-8.634l0.241-0.066c2.874-0.916 6.183-1.468 9.613-1.52h0.367c18.691 0.342 33.712 15.574 33.712 34.315 0 9.357-3.745 17.84-9.817 24.031l-48.135 48.115c-5.931 5.103-13.706 8.21-22.207 8.21-18.855 0-34.14-15.285-34.14-34.14 0-2.864 0.353-5.647 1.017-8.305l-0.050 0.235zM968.68 0.14c-1.493 0.826-3.245 1.597-5.069 2.212l-0.231 0.068-0.82 0.32c-3.039 0.963-6.534 1.519-10.159 1.52h-204.801c-0.022 0-0.048 0-0.075 0-8.25 0-15.813-2.938-21.701-7.825l0.056 0.045c-2.514-2.101-4.687-4.489-6.503-7.141l-0.077-0.119c-1.302-1.911-2.465-4.099-3.38-6.411l-0.080-0.229c-0.642-1.554-1.22-3.414-1.638-5.333l-0.042-0.227c-0.438-2.059-0.689-4.424-0.689-6.848 0-4.814 0.989-9.396 2.774-13.556l-0.085 0.224c0.44-1.020 0.92-2 1.44-2.98 1.131-2.066 2.35-3.846 3.724-5.494l-0.044 0.054c6.282-7.608 15.716-12.42 26.274-12.42 0.016 0 0.033 0 0.049 0h204.797c18.848 0.009 34.125 15.29 34.125 34.14 0 12.882-7.135 24.098-17.669 29.911l-0.176 0.089zM1243.32 546.28c-10.719-5.9-17.861-17.12-17.861-30.009 0-11.737 5.923-22.091 14.942-28.235l0.118-0.076c1.669-1.149 3.575-2.2 5.585-3.058l0.215-0.082c3.887-1.694 8.416-2.68 13.174-2.68 0.037 0 0.074 0 0.111 0h68.254c2.435 0.002 4.812 0.249 7.108 0.719l-0.228-0.039c2.451 0.513 4.598 1.202 6.642 2.085l-0.222-0.085c1.19 0.49 2.17 0.973 3.114 1.51l-0.134-0.070c10.71 5.905 17.847 17.117 17.86 29.998v0.002c0 0.020 0 0.043 0 0.066 0 10.558-4.812 19.991-12.363 26.228l-0.058 0.046c-1.593 1.339-3.374 2.559-5.27 3.595l-0.17 0.085c-0.96 0.52-2 1-2.98 1.44-1.829 0.81-3.977 1.5-6.207 1.963l-0.213 0.037c-2.060 0.445-4.426 0.7-6.851 0.7-0.010 0-0.020 0-0.030 0h-68.258c-0.015 0-0.032 0-0.049 0-4.778 0-9.326-0.986-13.452-2.765l0.221 0.085c-1.040-0.46-2.020-0.94-3-1.46zM640.8 657.58c-39.725-47.109-63.867-108.489-63.867-175.507 0-16.755 1.509-33.158 4.398-49.079l-0.251 1.667c2.104-11.893 4.539-21.94 7.519-31.75l-0.499 1.91c16.965-56.348 49.951-103.586 93.624-137.81l0.596-0.45q6-4.58 12-8.88 9.26-6.38 19.080-12v-70.64c0.005-4.802 0.99-9.373 2.766-13.525l-0.086 0.225c0.44-1.020 0.92-2 1.44-2.98 5.898-10.716 17.115-17.857 30-17.86h204.88c0.077-0.001 0.167-0.001 0.258-0.001 11.297 0 21.29 5.582 27.372 14.138l0.070 0.103c0.5 0.68 0.96 1.38 1.4 2.1 0.536 0.857 1.096 1.886 1.598 2.948l0.082 0.192c2.098 4.288 3.329 9.329 3.34 14.656v70.544c11.915 6.928 22.085 13.86 31.732 21.428l-0.592-0.448c2 1.52 4 3.080 5.84 4.66q5.76 4.74 11.22 9.76c54.391 50.072 88.349 121.619 88.349 201.097 0 56.443-17.126 108.885-46.466 152.415l0.617-0.972c-6.097 9.101-12.014 16.924-18.33 24.401l0.33-0.401q-4.66 5.56-9.56 10.8c-1.86 2-3.74 4-5.66 5.9-49.496 49.954-118.12 80.883-193.967 80.883-83.795 0-158.774-37.75-208.856-97.172l-0.337-0.411zM952.4 659.58c30.181-17.647 54.772-41.809 72.41-70.681l0.51-0.899c1.32-2.2 2.6-4.4 3.84-6.64 0.8-1.48 1.62-2.96 2.4-4.46 14.638-27.475 23.236-60.083 23.24-94.699v-0.001c0-2.38 0-4.74 0-7.12-0.373-12.964-1.913-25.345-4.522-37.327l0.242 1.327c-0.5-2.36-1.040-4.7-1.6-7.020-1.16-4.66-2.5-9.28-4-13.86s-3.14-9.080-4.94-13.52-3.78-8.86-6-13.18c-3.754-7.59-7.286-13.797-11.118-19.794l0.498 0.834c-2-3.24-4.24-6.42-6.46-9.52-20.31-28.185-46.983-50.563-77.992-65.295l-1.228-0.525c-11.555-5.622-19.393-17.248-19.46-30.711v-57.369h-136.48v57.3c0 0.82 0 1.62-0.1 2.44-0.956 12.497-8.512 23.029-19.157 28.191l-0.203 0.089c-24.883 11.756-46.017 27.433-63.55 46.477l-0.13 0.143c-3.26 3.54-6.38 7.22-9.38 10.98s-5.88 7.68-8.62 11.66c-1.36 2-2.7 4-4 6-3.334 5.163-6.866 11.37-10.077 17.765l-0.543 1.195c-2.12 4.32-4.1 8.72-5.9 13.18s-3.46 8.96-4.94 13.52q-2.42 7.5-4.28 15.16c-1.48 6.2-2.7 12.48-3.6 18.82-0.1 0.66-0.2 1.3-0.28 2-1.135 8.042-1.784 17.33-1.784 26.771 0 0.432 0.001 0.864 0.004 1.296v-0.066c0.014 75.401 40.761 141.282 101.434 176.837l0.966 0.523q8.9 5.12 18.18 9.32c4.12 1.86 8.28 3.56 12.48 5.14s8.46 3 12.72 4.28q9.62 2.88 19.44 4.82c2.5 0.5 5 0.92 7.5 1.32 7.311 1.233 15.979 2.101 24.789 2.41l0.351 0.010c2.3 0 4.62 0.12 6.94 0.12 0.064 0 0.14 0 0.215 0 37.616 0 72.863-10.143 103.155-27.844l-0.97 0.524zM979.24 93.58c-6.28 7.993-15.947 13.080-26.802 13.080-0.013 0-0.027 0-0.040 0h-204.798c-1.18 0-2.34 0-3.5-0.16-2.482-0.265-4.741-0.744-6.909-1.428l0.249 0.068c-2.359-0.751-4.384-1.632-6.298-2.69l0.178 0.090c-2.067-1.138-3.847-2.35-5.502-3.709l0.062 0.049c-0.84-0.7-1.64-1.44-2.42-2.2-3.476-3.481-6.204-7.709-7.924-12.423l-0.076-0.237c-0.332-0.893-0.682-2.056-0.971-3.243l-0.049-0.237c-0.632-2.447-0.995-5.256-0.995-8.15 0-12.842 7.145-24.016 17.677-29.762l0.177-0.089c1.741-0.973 3.767-1.849 5.886-2.516l0.234-0.064c1.932-0.638 4.193-1.118 6.526-1.349l0.134-0.011c1.048-0.115 2.263-0.18 3.494-0.18 0.002 0 0.004 0 0.006 0h204.82c0.012 0 0.027 0 0.042 0 13.433 0 25.046 7.79 30.569 19.099l0.089 0.201c0.48 0.98 0.9 2 1.28 3 0.344 0.868 0.706 1.987 1.009 3.132l0.051 0.228c0.681 2.54 1.082 5.459 1.1 8.469v0.011c-0.007 7.97-2.756 15.297-7.354 21.090l0.054-0.070zM353.040 488c5.335-3.645 11.925-5.82 19.023-5.82 0.027 0 0.054 0 0.081 0h68.256c0.016 0 0.035 0 0.055 0 18.833 0 34.1 15.267 34.1 34.1 0 11.575-5.767 21.803-14.584 27.967l-0.11 0.073c-0.48 0.34-0.98 0.66-1.48 0.96-5.096 3.238-11.304 5.16-17.961 5.16-0.014 0-0.027 0-0.041 0h-68.238c-0.077 0.001-0.168 0.001-0.259 0.001-7.698 0-14.784-2.62-20.415-7.016l0.074 0.055c-5.612-4.216-9.812-10.039-11.936-16.783l-0.064-0.237c-0.64-1.933-1.12-4.194-1.35-6.528l-0.010-0.132c-0.115-1.050-0.18-2.268-0.18-3.502 0-7.116 2.175-13.725 5.896-19.197l-0.076 0.119c2.5-3.656 5.564-6.72 9.102-9.144l0.118-0.076z" />
<glyph unicode="&#xe91b;" glyph-name="opportunita" horiz-adv-x="1700" d="M937.020 455.52c20.431 21.475 33 50.594 33 82.65 0 66.274-53.726 120-120 120s-120-53.726-120-120c0-32.055 12.569-61.175 33.047-82.7l-0.047 0.050c-55.835-31.286-92.966-90.061-93.020-157.512v-30.008c0-16.569 13.431-30 30-30v0h300c16.569 0 30 13.431 30 30v0 30c-0.041 67.453-37.158 126.227-92.073 157.052l-0.907 0.468zM850 598c33.137 0 60-26.863 60-60s-26.863-60-60-60c-33.137 0-60 26.863-60 60v0c0 33.137 26.863 60 60 60v0zM730 298c0 66.274 53.726 120 120 120s120-53.726 120-120v0zM850 748c16.569 0 30 13.431 30 30v0 77.88l8.44-8.72c5.471-5.709 13.158-9.258 21.674-9.258 16.569 0 30 13.431 30 30 0 8.168-3.264 15.573-8.559 20.983l0.005-0.005-60 62c-5.461 5.639-13.102 9.139-21.56 9.139s-16.099-3.5-21.552-9.131l-0.008-0.008-60-62c-5.153-5.378-8.326-12.69-8.326-20.742 0-16.569 13.431-30 30-30 8.401 0 15.995 3.453 21.441 9.017l0.005 0.005 8.44 8.72v-77.88c0-16.569 13.431-30 30-30v0zM888.44 48.86l-8.44-8.72v77.86c0 16.569-13.431 30-30 30s-30-13.431-30-30v0-77.86l-8.44 8.72c-5.451 5.569-13.045 9.022-21.446 9.022-16.569 0-30-13.431-30-30 0-8.053 3.173-15.364 8.336-20.753l-0.010 0.011 60-62c5.442-5.575 13.007-9.057 21.385-9.14h0.175c8.451 0.039 16.080 3.53 21.554 9.134l0.006 0.006 60 62c5.29 5.404 8.554 12.81 8.554 20.978 0 16.569-13.431 30-30 30-8.516 0-16.203-3.548-21.664-9.247l-0.010-0.011zM442.12 418h77.88c16.569 0 30 13.431 30 30s-13.431 30-30 30v0h-77.88l8.74 8.44c5.637 5.462 9.137 13.102 9.137 21.56 0 16.572-13.434 30.007-30.007 30.007-8.115 0-15.477-3.221-20.878-8.454l0.008 0.008-62-60c-5.639-5.461-9.139-13.102-9.139-21.56s3.5-16.099 9.131-21.552l0.008-0.008 62-60c5.442-5.509 12.996-8.921 21.346-8.921 16.569 0 30 13.431 30 30 0 8.694-3.698 16.524-9.607 22.003l-0.019 0.018zM1290.88 529.58c-5.393 5.226-12.755 8.447-20.87 8.447-16.572 0-30.007-13.434-30.007-30.007 0-8.458 3.499-16.098 9.129-21.552l0.008-0.008 8.72-8.44h-77.86c-16.569 0-30-13.431-30-30s13.431-30 30-30v0h77.86l-8.72-8.46c-5.72-5.472-9.275-13.166-9.275-21.69 0-16.569 13.431-30 30-30 8.186 0 15.606 3.279 21.019 8.595l-0.004-0.004 62 60c5.639 5.461 9.139 13.102 9.139 21.56s-3.5 16.099-9.131 21.552l-0.008 0.008zM595.44 235.88l-55.44-55.44v12.42c0 16.569-13.431 30-30 30s-30-13.431-30-30v0-84.86c0-16.569 13.431-30 30-30v0h84.86c16.569 0 30 13.431 30 30s-13.431 30-30 30v0h-12.42l55.44 55.44c5.432 5.43 8.793 12.933 8.793 21.22 0 16.57-13.433 30.003-30.003 30.003-8.282 0-15.781-3.356-21.21-8.783v0zM1062.14 660.16c5.429-5.427 12.927-8.784 21.21-8.784s15.781 3.357 21.21 8.784l55.44 55.44v-12.44c0-16.569 13.431-30 30-30s30 13.431 30 30v0 84.84c0 16.569-13.431 30-30 30v0h-84.84c-16.569 0-30-13.431-30-30s13.431-30 30-30v0h12.42l-55.44-55.44c-5.421-5.428-8.774-12.922-8.774-21.2s3.353-15.772 8.774-21.2v0zM1190 222.86c-16.569 0-30-13.431-30-30v0-12.42l-55.44 55.44c-5.463 5.651-13.111 9.159-21.579 9.159-16.569 0-30-13.431-30-30 0-8.468 3.508-16.116 9.15-21.571l55.448-55.468h-12.44c-16.569 0-30-13.431-30-30s13.431-30 30-30v0h84.86c16.569 0 30 13.431 30 30v0 84.86c0 16.569-13.431 30-30 30v0zM582.42 758h12.42c16.569 0 30 13.431 30 30s-13.431 30-30 30v0h-85.1c-16.456-0.147-29.74-13.522-29.74-29.999 0 0 0-0.001 0-0.001v0-84.86c0-16.569 13.431-30 30-30s30 13.431 30 30v0 12.46l55.46-55.44c5.463-5.651 13.111-9.159 21.579-9.159 16.569 0 30 13.431 30 30 0 8.468-3.508 16.116-9.15 21.571l-0.008 0.008z" />
<glyph unicode="&#xe91c;" glyph-name="proposte-collaborazione-een" horiz-adv-x="1700" d="M929.8 700.7h-159.6c-0.054 0-0.117 0-0.18 0-29.282 0-53.020-23.738-53.020-53.020 0-0.063 0-0.127 0-0.19v0.010-53.2h-79.8c-0.054 0-0.117 0-0.18 0-29.282 0-53.020-23.738-53.020-53.020 0-0.063 0-0.127 0-0.19v0.010-292.6c0-0.054 0-0.117 0-0.18 0-29.282 23.738-53.020 53.020-53.020 0.063 0 0.127 0 0.19 0h425.59c0.054 0 0.117 0 0.18 0 29.282 0 53.020 23.738 53.020 53.020 0 0.063 0 0.127 0 0.19v-0.010 292.6c0 0.054 0 0.117 0 0.18 0 29.282-23.738 53.020-53.020 53.020-0.063 0-0.127 0-0.19 0h-79.79v53.2c0 0.054 0 0.117 0 0.18 0 29.282-23.738 53.020-53.020 53.020-0.063 0-0.127 0-0.19 0h0.010zM770.2 647.5h159.6v-53.2h-159.6zM1062.8 248.5h-425.6v53.2h425.6zM1062.8 541.1v-159.6h-425.6v159.6h79.8v-53.2h53.2v53.2h159.6v-53.2h53.2v53.2zM647.9 42.42l14.84-45.78-39.1 29.62-39.060-29.62 14.8 47.14-39.060 26.96h48.54l14.78 45.78 14.84-45.78h47.16l-37.74-28.32zM874.26-18.22l14.8-45.78-39.060 29.64-39.040-28.28 14.78 45.8-39.040 26.94 48.46 1.38 14.84 44.42 14.86-44.42h47.14l-37.74-29.7zM1265 206.86l14.8-45.86-39.060 29.64-39.040-28.26 14.78 45.78-37.74 28.32h47.16l14.84 44.48 14.84-44.48h47.16l-37.74-29.62zM1099.26 42.42l16.16-45.78-39.040 29.62-40.42-29.62 14.78 47.14-37.68 26.96h47.16l16.16 45.78 13.46-45.78h47.16l-37.74-28.32zM482.16 206.86l16.16-45.86-39.060 29.64-40.42-28.26 14.84 45.78-37.72 28.32h47.14l16.16 44.48 13.48-44.48h47.16l-37.74-29.62zM421.52 433.16l16.16-45.8-39.040 29.64-40.42-28.26 14.84 45.78-37.74 26.96 47.16 1.36 16.16 44.42 13.46-44.42h47.16l-37.74-29.68zM647.9 823.88l14.84-45.78-39.1 29.64-39.060-29.64 14.8 45.78-39.060 28.32h48.54l14.78 44.48 14.84-44.48h47.16l-37.74-28.32zM482.16 659.52l16.16-45.78-39.060 29.62-40.42-29.62 14.84 45.78-37.72 28.32h47.14l16.16 44.48 13.48-44.48h47.16l-37.74-28.32zM874.26 885.9l14.8-45.8-39.060 29.64-39.040-28.32 14.78 45.84-39.040 26.96 48.46 1.3 14.84 44.48 14.86-44.48h47.14l-37.74-29.62zM1099.26 823.88l16.16-45.78-39.040 29.64-40.42-29.64 14.78 45.78-37.68 28.32h47.16l16.16 44.48 13.46-44.48h47.16l-37.74-28.32zM1326.94 433.16l14.84-45.8-37.74 29.64-40.42-28.26 14.86 45.78-37.74 26.96 47.16 1.36 16.14 44.42 13.48-44.42h47.16l-37.74-29.68zM1265 659.52l14.8-45.78-39.060 29.62-39.040-29.62 14.78 45.78-37.74 28.32h47.16l14.84 44.48 14.84-44.48h47.16l-37.74-28.32z" />
<glyph unicode="&#xe91d;" glyph-name="aziende" horiz-adv-x="1700" d="M641.54 546.4l-409.54-204.8-34.18 614.4h-136.5l-34.18-614.4v-409.6h1024v614.4l-409.6-204.8zM744 170.92h204.8v-136.52h-204.8zM334.34 34.4h-204.8v136.52h204.8zM641.54 34.4h-204.8v136.52h204.8zM1468 136.8v102.4l-204.8-102.4-17 307.2h-68.2l-17.080-307.2v-204.8h512v307.2zM1314.4-16.8h-102.4v68.26h102.4zM1468-16.8h-102.4v68.26h102.4zM1621.6-16.8h-102.4v68.26h102.4z" />
<glyph unicode="&#xe91e;" glyph-name="la-mia-azienda" horiz-adv-x="1700" d="M953.14 345.6v204.8l-412.56-204.8-34.36 614.4h-137.5l-34.42-614.4v-409.6h1031.4v614.4zM643.72 38.4h-206.28v136.52h206.28zM953.14 38.4h-206.28v136.52h206.28zM1262.56 38.4h-206.28v136.52h206.28z" />
<glyph unicode="&#xe91f;" glyph-name="categorie-merceologiche" horiz-adv-x="1700" d="M1339.3 817.18v0l-456.8 138c-9.722 3.045-20.901 4.8-32.49 4.8s-22.768-1.754-33.286-5.012l0.796 0.212-199.040-60.22v-265.2l-105.060-20v253.14l-152.72-45.74c-23.865-7.438-40.902-29.299-40.98-55.151v-628.009c-0.001-0.111-0.001-0.242-0.001-0.374 0-25.858 17.080-47.726 40.574-54.939l0.407-0.108 456.82-137.68c9.717-3.064 20.893-4.83 32.48-4.83s22.762 1.766 33.271 5.043l-0.791-0.212 456.82 138c23.9 7.32 40.98 29.189 40.98 55.046 0 0.019 0 0.038 0 0.057v-0.003 628c0 0.022 0 0.048 0 0.074 0 25.873-17.076 47.757-40.572 54.997l-0.408 0.108zM1265.3 177.18l-357.3-107.96v757.58l357.24-108zM1094 222.5c0.477-0.841 1-1.568 1.591-2.233l-0.011 0.013c0.633-0.661 1.365-1.22 2.173-1.657l0.047-0.023c0.674-0.398 1.455-0.715 2.283-0.909l0.057-0.011h2.58c0.893 0.189 1.682 0.465 2.42 0.827l-0.060-0.027c0.762 0.425 1.419 0.916 2.002 1.482l-0.002-0.002c0.621 0.589 1.168 1.245 1.634 1.958l0.026 0.042c0.488 0.707 0.942 1.514 1.321 2.363l0.039 0.097 66.98 154.78c0.776 1.765 1.262 3.816 1.339 5.971l0.001 0.029c0.004 0.136 0.006 0.296 0.006 0.456 0 1.885-0.287 3.703-0.82 5.413l0.035-0.129c-0.599 1.824-1.552 3.389-2.785 4.685l0.005-0.005c-1.354 1.336-3.214 2.161-5.267 2.161-0.040 0-0.079 0-0.119-0.001h0.006l-27.78-1.24v256.42c0 0.003 0 0.006 0 0.009 0 2.221-0.285 4.375-0.819 6.428l0.039-0.177c-0.517 2.076-1.279 3.902-2.272 5.574l0.052-0.094c-0.949 1.682-2.144 3.107-3.555 4.28l-0.025 0.020c-1.351 1.132-2.998 1.957-4.806 2.347l-0.074 0.013-56.96 12c-0.314 0.036-0.678 0.056-1.047 0.056-1.523 0-2.965-0.345-4.252-0.961l0.059 0.026c-1.76-0.856-3.222-2.075-4.338-3.569l-0.022-0.031c-1.143-1.514-2.063-3.274-2.666-5.176l-0.034-0.124c-0.549-1.806-0.865-3.881-0.865-6.030 0-0.158 0.002-0.316 0.005-0.473v0.023-274l-33.5-1.44c-2.272-0.153-4.294-1.117-5.801-2.601l0.001 0.001c-1.49-1.464-2.642-3.267-3.332-5.285l-0.028-0.095c-0.641-1.742-1.011-3.754-1.011-5.852 0-0.221 0.004-0.44 0.012-0.659l-0.001 0.032c0.088-2.437 0.737-4.703 1.82-6.7l-0.040 0.080z" />
<glyph unicode="&#xe920;" glyph-name="info" horiz-adv-x="1700" d="M488.3 809.7c-92.566-92.567-149.82-220.446-149.82-361.699 0-282.505 229.015-511.52 511.52-511.52s511.52 229.015 511.52 511.52c0 141.252-57.254 269.132-149.82 361.699v0c-92.438 92.848-220.359 150.304-361.7 150.304s-269.262-57.456-361.682-150.285l-0.018-0.018zM850 765.7c39.1 0 73.32-34.2 73.32-73.3s-34.22-73.32-73.32-73.32-73.32 34.2-73.32 73.32 34.22 73.3 73.32 73.3zM962.42 223.16c-24.44-29.32-58.66-44-97.76-44-19.54 0-34.22 0-53.76 4.9-29.32 4.88-63.54 44-58.66 83.080 4.9 29.34 9.78 53.76 9.78 83.1 9.78 48.88 14.66 97.76 24.44 141.74v9.78c0 19.56-4.88 29.32-24.44 29.32-9.78 0-14.66 0-24.44 4.9s-14.66 9.78-14.66 19.54 4.88 14.68 14.66 14.68h151.52c14.66 0 24.44-9.78 24.44-24.44s0-29.34-4.88-44c-9.78-53.76-19.56-107.54-29.32-166.18-4.9-19.56-4.9-34.22-9.78-53.78v-24.44c4.88-9.76 9.78-19.54 19.54-14.66 9.451 0.201 18.005 3.881 24.468 9.805l-0.028-0.025c4.9 4.88 14.68 9.78 19.56 9.78 34.22 0 39.1-9.78 39.1-19.56 0-4.88-4.88-14.7-9.78-19.54z" />
<glyph unicode="&#xe921;" glyph-name="segnalazioni" horiz-adv-x="1700" d="M850 960c-282.82 0-512-229.18-512-512s229.18-512 512-512 512 229.18 512 512-229.18 512-512 512zM1118.2 316.34c-122-136.54-268.2 136.54-390 0v-136.54h-97.62v487.62h97.52v-39c121.9 136.54 268.18-136.54 390.1 0z" />
<glyph unicode="&#xe922;" glyph-name="modifica" horiz-adv-x="1700" d="M850 960c-282.82 0-512-229.18-512-512s229.18-512 512-512 512 229.18 512 512-229.18 512-512 512zM757.36 189.56l-175.56-58.52 53.64 175.54 287.7 287.7 117.040-117.020zM1152.32 574.78l-68.32-68.26-131.6 131.64 68.26 68.28c14.64 14.62 34.14 14.62 48.76 0l87.78-87.78c14.62-9.74 14.62-34.12-4.88-43.88z" />
<glyph unicode="&#xe923;" glyph-name="settings" horiz-adv-x="1700" d="M850-64c282.82 0 512 229.18 512 512s-229.18 512-512 512-512-229.18-512-512 229.18-512 512-512zM533.040 496.76l102.4 170.66 82.9-48.76c9.76 9.76 24.38 14.64 34.14 19.52v92.64h200v-92.64c9.76-4.88 24.38-9.76 34.14-19.52l82.88 48.76 97.54-170.66-83.040-48.76v-43.88l82.9-48.76-102.4-170.68-82.9 48.76c-9.76-9.74-24.38-14.62-34.14-19.5v-92.64h-200v92.7c-9.76 4.88-24.38 9.76-34.14 19.5l-82.88-48.76-97.54 170.68 83.1 48.7v43.88zM967.020 428.5c0-64.628-52.392-117.020-117.020-117.020s-117.020 52.392-117.020 117.020c0 64.628 52.392 117.020 117.020 117.020s117.020-52.392 117.020-117.020z" />
<glyph unicode="&#xe924;" glyph-name="risultati" horiz-adv-x="1700" d="M793.1 415.020l-113.76 113.78-80.82-80.8 194.6-194.58 308.36 308.36-80.8 80.8-227.58-227.56zM850 960c-282.18 0-512-229.82-512-512s229.82-512 512-512 512 229.82 512 512-229.82 512-512 512zM850 49.78c-219.6 0-398.22 178.62-398.22 398.22s178.62 398.22 398.22 398.22 398.22-178.62 398.22-398.22-178.62-398.22-398.22-398.22z" />
<glyph unicode="&#xe925;" glyph-name="community-consigliate" d="M575.12 730c0 0.006 0 0.013 0 0.020 0 47.695-38.665 86.36-86.36 86.36s-86.36-38.665-86.36-86.36c0-47.695 38.665-86.36 86.36-86.36 0.007 0 0.014 0 0.021 0h-0.001c47.625 0.147 86.193 38.715 86.34 86.326v0.014zM488.78 701.22c-15.895 0-28.78 12.885-28.78 28.78s12.885 28.78 28.78 28.78c15.895 0 28.78-12.885 28.78-28.78v0c-0.045-15.876-12.904-28.735-28.776-28.78h-0.004zM675.88 643.66c31.781 0.011 57.54 25.778 57.54 57.56 0 31.79-25.77 57.56-57.56 57.56s-57.56-25.77-57.56-57.56v0c0-0.060 0-0.13 0-0.2 0-31.679 25.681-57.36 57.36-57.36 0.077 0 0.155 0 0.232 0h-0.012zM272.62 672.16c0-158.97 128.87-287.84 287.84-287.84s287.84 128.87 287.84 287.84c0 158.97-128.87 287.84-287.84 287.84-0.007 0-0.014 0-0.021 0h0.001c-158.924-0.102-287.729-128.914-287.82-287.831v-0.009zM383.44 525.080c19.56 15.54 65.32 32 105.34 32 2 0 4.32-0.3 6.62-0.3 8.429 21.23 21.184 39.162 37.274 53.413l0.146 0.127c-13.071 2.63-28.239 4.29-43.739 4.596l-0.261 0.004c-37.42 0-97.58-12.94-136.16-41.16-14.159 28.782-22.44 62.649-22.44 98.45 0 0.102 0 0.204 0 0.306v-0.016c0 0.123 0 0.269 0 0.415 0 127.18 103.1 230.28 230.28 230.28s230.28-103.1 230.28-230.28c0-35.365-7.972-68.867-22.216-98.809l0.597 1.394c-28.78 16.98-68 25.040-93.24 25.040-43.76 0-129.54-23.32-129.54-77.72v-80c-65.681 3.838-123.423 34.894-162.601 81.951l-0.299 0.369zM855.060 238c-23.46-9.38-62.88-21.6-105.12-32.86-14-25.32-41.28-47.88-84.46-57.26-9.238-1.893-20.792-3.555-32.521-4.607l-1.279-0.093c-30-1.86-66.66 0-106.98 0.96h-8.44c-9.38 0.96-18.78 7.52-19.72 16.9-0.115 0.788-0.181 1.697-0.181 2.622 0 10.527 8.533 19.060 19.060 19.060 0.62 0 1.233-0.030 1.838-0.087l-0.077 0.006h9.38c51.62-1.88 100.42-4.7 130.44 2.82 56.32 13.12 70.4 47.88 65.7 76.96-3.74 22.5-22.5 45.060-50.66 41.28-39.42-4.7-86.34-2.82-132.36-1.88-52.58 1.88-106 0.96-143.62-4.68-42.24-6.56-126.7-41.28-200-95.74-35.68-26.28-76-58.18-100.42-77.9-12.14-9.5-14-28.22-3.64-39.5l115.46-138c10.34-12.2 27.2-13.12 39.4-3.74l39.42 32.86c6.663 5.361 15.227 8.604 24.548 8.604 3.284 0 6.474-0.403 9.523-1.161l-0.271 0.057c75.1-20.64 154.88-32.84 206.5-33.8 112.62-0.94 324.76 140.8 384.82 186.76s12.18 130.42-56.34 102.42z" />
<glyph unicode="&#xe926;" glyph-name="piano-lavoro" d="M850.66 350.3h-181.7v49.22h47.8c11.738 0.034 21.24 9.557 21.24 21.3 0 0 0 0 0 0v0 54.4c0 11.764-9.536 21.3-21.3 21.3v0h-47.8v215.84c0 3.921-3.179 7.1-7.1 7.1s-7.1-3.179-7.1-7.1v0-215.84h-285.44v49.22h200.74c11.764 0 21.3 9.536 21.3 21.3v54.4c0 11.764-9.536 21.3-21.3 21.3v0h-200.7v69.62c0.006 0.113 0.010 0.244 0.010 0.377 0 3.921-3.179 7.1-7.1 7.1s-7.1-3.179-7.1-7.1c0-0.133 0.004-0.264 0.011-0.395l-0.001 0.018v-69.66h-181.76c-0.018 0-0.039 0-0.060 0-11.764 0-21.3-9.536-21.3-21.3 0 0 0 0 0 0v0-54.4c0-11.764 9.536-21.3 21.3-21.3v0h181.72v-49.22h-34.82c-11.764 0-21.3-9.536-21.3-21.3v0-54.4c0-11.764 9.536-21.3 21.3-21.3h34.88v-215.84c-0.006-0.113-0.010-0.244-0.010-0.377 0-3.921 3.179-7.1 7.1-7.1s7.1 3.179 7.1 7.1c0 0.133-0.004 0.264-0.011 0.395l0.001-0.018v215.88h285.54v-49.22h-63.9c-11.753 0-21.28-9.527-21.28-21.28 0-0.007 0-0.014 0-0.021v0.001-54.4c0-0.006 0-0.013 0-0.020 0-11.753 9.527-21.28 21.28-21.28 0 0 0 0 0 0h63.9v-69.66c0-3.921 3.179-7.1 7.1-7.1s7.1 3.179 7.1 7.1v0 69.66h181.7c11.764 0 21.3 9.536 21.3 21.3v0 54.4c-0.034 11.764-9.573 21.289-21.339 21.3h-0.001zM863.42 858c32.339-0.034 58.546-26.241 58.58-58.577v-702.843c-0.034-32.339-26.241-58.546-58.577-58.58h-702.843c-32.339 0.034-58.546 26.241-58.58 58.577v702.843c0.034 32.339 26.241 58.546 58.577 58.58h702.843zM863.42 960h-702.84c-0.006 0-0.013 0-0.020 0-88.675 0-160.56-71.885-160.56-160.56 0-0.007 0-0.014 0-0.021v0.001-702.84c0-0.006 0-0.013 0-0.020 0-88.675 71.885-160.56 160.56-160.56 0.007 0 0.014 0 0.021 0h702.839c0.006 0 0.013 0 0.020 0 88.675 0 160.56 71.885 160.56 160.56 0 0.007 0 0.014 0 0.021v-0.001 702.84c0 0.006 0 0.013 0 0.020 0 88.675-71.885 160.56-160.56 160.56-0.007 0-0.014 0-0.021 0h0.001z" />
<glyph unicode="&#xe927;" glyph-name="altri" d="M379.88 277.8h-198.58l-99.3 170.2 99.28 171.72h198.96l100.44-171.72zM556.46 466.92l-121.26 210c-6.706 11.383-18.9 18.9-32.851 18.9-0.045 0-0.091 0-0.136 0h-242.893c-0.038 0-0.084 0-0.129 0-13.951 0-26.145-7.518-32.754-18.723l-0.097-0.177-121.26-210c-3.197-5.425-5.085-11.952-5.085-18.92s1.888-13.495 5.181-19.097l-0.096 0.177 121.26-210c6.706-11.383 18.9-18.9 32.851-18.9 0.045 0 0.091 0 0.136 0h242.893c0.038 0 0.084 0 0.129 0 13.951 0 26.145 7.518 32.754 18.723l0.097 0.177 121.26 210c3.197 5.425 5.085 11.952 5.085 18.92s-1.888 13.495-5.181 19.097l0.096-0.177zM842.44 11.66h-198.82l-99.22 171.72 99.22 171.72h198.82l100.74-171.34zM897.36 412.58c-6.652 11.378-18.81 18.901-32.725 18.901-0.076 0-0.151 0-0.227-0.001h-242.748c-0.064 0-0.14 0.001-0.215 0.001-13.915 0-26.072-7.522-32.628-18.722l-0.097-0.178-121.2-210c-3.187-5.424-5.070-11.947-5.070-18.91s1.883-13.486 5.167-19.088l-0.097 0.178 121.2-210c6.676-11.3 18.794-18.761 32.655-18.761 0.1 0 0.2 0 0.3 0.001h242.745c0.057 0 0.125 0 0.192 0 13.926 0 26.093 7.531 32.651 18.742l0.097 0.179 121.56 209.52c3.197 5.422 5.086 11.945 5.086 18.91s-1.889 13.488-5.182 19.087l0.096-0.177zM643.88 884.34h198.7l100.66-172-99.24-171.8h-200.12l-99.14 171.72zM588.64 483.42c6.648-11.378 18.802-18.901 32.713-18.901 0.073 0 0.146 0 0.218 0.001h242.569c0.062 0 0.134-0.001 0.207-0.001 13.911 0 26.065 7.523 32.616 18.722l0.097 0.179 121.86 210c3.197 5.422 5.086 11.945 5.086 18.91s-1.889 13.488-5.182 19.087l0.096-0.177-121.1 210c-6.671 11.3-18.786 18.761-32.644 18.761-0.097 0-0.194 0-0.291-0.001h-242.885c-0.068 0-0.149 0.001-0.229 0.001-13.933 0-26.107-7.53-32.674-18.742l-0.097-0.179-121.48-209.52c-3.187-5.424-5.070-11.947-5.070-18.91s1.883-13.486 5.167-19.088l-0.097 0.178z" />
<glyph unicode="&#xe928;" glyph-name="assi" d="M523.88 226.72c-20.16 9.286-43.666 16.899-68.186 21.676l-1.994 0.324c-1.546 0.336-3.321 0.528-5.142 0.528-13.863 0-25.122-11.15-25.298-24.971v-0.757c0.095-12.117 8.781-22.177 20.263-24.395l0.157-0.025c22.033-4.238 41.561-10.536 59.966-18.876l-1.666 0.676c28.78-13.2 46-29.78 46-44.4s-17.18-31.24-46-44.4c-36-16.48-84.12-25.5-136-25.5s-100 9.060-136 25.5c-28.78 13.2-46 29.78-46 44.4s17.18 31.22 46 44.4c17.166 7.853 37.179 14.261 58.053 18.236l1.667 0.264c11.682 2.226 20.411 12.308 20.52 24.448v0.752c-0.239 13.811-11.491 24.915-25.336 24.915-1.728 0-3.415-0.173-5.046-0.502l0.162 0.027c-27.082-5.097-51.129-12.814-73.764-23.095l2.004 0.815c-48.8-22.38-75.7-54.42-75.7-90.24s26.9-67.86 75.7-90.26c42.56-19.52 98.62-30.26 157.76-30.26s115.2 10.76 157.8 30.26c48.82 22.4 75.7 54.44 75.7 90.26s-26.84 67.86-75.7 90.2zM880.38 628.68c-99.66 76.4-200.14 84.12-240 83.74-1.377-0.017-3.004-0.027-4.634-0.027-22.618 0-44.792 1.901-66.371 5.552l2.325-0.325c-121.7 20.38-163.82 73.32-177.44 99.18v37.6c0 14.249-11.551 25.8-25.8 25.8s-25.8-11.551-25.8-25.8v0-731.060c0-14.249 11.551-25.8 25.8-25.8s25.8 11.551 25.8 25.8v0 268.16c4.72 4.94 12.3 8.8 23.16 2.7 5.935-3.064 12.831-5.627 20.057-7.336l0.623-0.124c14.079-3.729 30.242-5.871 46.905-5.871 49.836 0 95.197 19.157 129.122 50.508l-0.128-0.117c28.22 25.88 51.82 55.26 72.98 74.14 95.66 85.16 168 92.68 187.16 93.060 4.915 0.046 9.392 1.879 12.823 4.88l-0.023-0.020c13.26 12-6.5 25.36-6.5 25.36z" />
<glyph unicode="&#xe929;" glyph-name="capofila" d="M684.3 187.3l213.38 96.4c-8.96 57.78-58.24 86.4-116.18 118-20.28 11.48-37.66 22.94-58 34.42l-0.34 69.34c20.16 14.54 34.56 26.18 34.42 55.1l-0.46 95.36c-0.16 31.8-26.3 57.68-60.96 57.52l-31.8-0.16c-31.8-0.16-60.54-26.32-60.38-58.12l0.46-95.36c0.14-28.9 14.64-40.38 34.96-54.74l0.34-69.36c-17.26-11.66-37.42-23.3-57.64-34.98-57.66-32-106.6-61.2-112.1-119.040l214.32-94.3zM343.32 185.62l112.44 52.58-34.78 14.26c-0.3 63.56 16.84 101.24 51.38 130.28-11.6 5.72-20.28 11.48-31.88 17.16-20.28 11.48-37.66 22.94-58 34.42l-0.34 69.36c20.14 14.52 34.56 26.18 34.42 55.080l-0.46 95.38c-0.16 31.8-26.3 57.68-60.96 57.5l-31.8-0.14c-31.8-0.16-60.54-26.32-60.4-58.12l0.48-95.36c0.14-28.92 14.64-40.38 34.96-54.76l0.34-69.36c-17.26-11.66-37.44-23.3-57.64-34.98-54.76-32-106.6-61.18-112-119.020l214.32-94.32zM513.7 212.46l-170.14-78.88-263.56 117.2c-0.54 109.78 51.34 138.96 137.78 188.52 11.56 5.84 23.060 11.68 34.6 20.4v20.22c-20.38 20.080-35.040 48.96-35.18 77.86l-0.46 95.36c-0.3 57.82 48.6 107.16 106.38 107.44l31.8 0.16c0.226 0.002 0.493 0.003 0.76 0.003 58.809 0 106.502-47.595 106.66-106.368v-0.015l0.48-95.36c0.006-0.4 0.009-0.872 0.009-1.345 0-30.49-13.217-57.892-34.234-76.791l-0.094-0.084 0.1-20.22c11.62-8.62 23.18-14.32 34.8-20 17.38-11.48 34.78-20 49.26-28.66 14.4 8.76 28.82 17.48 46.1 29.14 11.54 5.84 23.060 11.68 34.6 20.4l-0.1 20.22c-20.32 20.12-34.94 48.96-35.080 77.86l-0.48 95.36c-0.28 57.76 48.62 107.12 106.3 107.38l31.8 0.16c57.82 0.28 107.16-48.62 107.44-106.38l0.46-95.38c0.006-0.402 0.009-0.877 0.009-1.352 0-30.478-13.209-57.87-34.215-76.765l-0.094-0.083 0.1-20.22c11.62-8.62 23.18-14.32 34.78-20 86.94-48.7 139.1-77.34 139.64-187.16l-259.42-119.82-170.9 77.2z" />
<glyph unicode="&#xe92a;" glyph-name="obiettivi" d="M356.48 880v-61.44h-215.040v-215.040h-61.44v276.48zM944 880v-276.48h-61.44v215.040h-215.040v61.44zM512 592c-79.529 0-144-64.471-144-144s64.471-144 144-144c79.529 0 144 64.471 144 144v0c-0.272 79.419-64.58 143.728-143.974 144h-0.026zM506.24 522.88c44.536 0 80.64-36.104 80.64-80.64s-36.104-80.64-80.64-80.64c-44.536 0-80.64 36.104-80.64 80.64v0c-0.001 0.131-0.001 0.286-0.001 0.441 0 44.293 35.907 80.2 80.2 80.2 0.155 0 0.31 0 0.465-0.001h-0.024zM141.44 292.48v-215.040h215.040v-61.44h-276.48v276.48zM944 292.48v-276.48h-276.48v61.44h215.040v215.040z" />
<glyph unicode="&#xe92b;" glyph-name="work-packages" d="M944 414.54l-205.040 94.14v225.9l-226.96 104.6-226.96-104.6v-226l-205.040-94.040v-253.12l226.96-104.6 205.040 94.14 205.040-94.14 226.96 104.6zM491.080 613.28v-180.98l-164.2 75.3v180.98zM532.92 613.28l164.2 75.3v-180.98l-164.2-75.3zM460.76 399.86l-153.78-70-155.84 71.080 153.76 71.060zM328 293.18l163.18 74.3v-179.9l-163.18-75.34zM533.020 367.48l163.2-74.3v-180.96l-163.2 75.34zM717.14 329.8l-153.8 70 155.74 72.2 153.74-71.12zM667.94 721.020l-155.94-72.2-155.84 72.2 155.84 72.16zM121.94 368.5l164.060-75.32v-180.96l-164.2 76.36zM738 112.22v180.96l164.2 75.32v-179.9z" />
<glyph unicode="&#xe92c;" glyph-name="een-platform" horiz-adv-x="1156" d="M445.6 491.2c-22.8-18.8-11.8-72.2 41.4-40 0 0 65 32.6 103 54 8.2 4.8 13.8 3.2 20.6-4.8 7.6-5.4 179.8-197.8 179.8-197.8s53 40.2 73.8 82.6c0 0-47.6 89.8-93.2 178.8-13.2-7.6-24.4-14.6-39.4-10.2-15.6 4.4-28.6 16.8-42.8 25-16.2 9.4-29.8 17.8-47.8 20.4-26.6 3.8-47.4-8-70.4-21.2-26-15-51.4-31.8-76-49.4-16.8-11.8-33.2-24.2-49-37.4zM479 191.8c-8.8 12.4-7.2 30.6 3.8 41l54.6 49.6c11 10.4 27.2 8.8 36.2-3.4v0c8.8-12.4 7.2-30.6-3.8-41l-54.6-49.6c-11-10.6-27.2-9-36.2 3.4v0zM428.6 237.4c-9 12.4-7.2 30.8 3.8 41l43 39.2c11.2 10.4 27.4 8.8 36.4-3.6v0c9-12.2 7.2-30.6-3.8-41l-43.2-39c-11-10.4-27.2-8.8-36.2 3.4v0zM367.6 275c-8.4 13-5.8 31.2 5.8 40.8l9.8 7.6c11.6 9.6 27.6 7 36-5.8l0.6-0.6c8.4-13 5.2-30.4-6.4-40l-9.6-7.6c-11.8-9.8-27.8-7.2-36.2 5.6v0zM609 219.6c-9.6 11.8-25.8 12.4-36.4 1.4l-23.6-24.4c-10.6-11-11.6-29.4-2.2-41.2 9.6-11.8 25.8-12.4 36.4-1.6l23.6 24.6c10.8 11 11.6 29.4 2.2 41.2zM945.6 426c4-7.4 1.8-16.2-4.6-19.6l-39.6-20.8c-6.6-3.4-15 0-18.8 7.4l-94.2 182c-4 7.4-1.8 16.2 4.6 19.6l39.6 20.8c6.4 3.4 14.8 0 18.6-7.4l94.4-182zM274.6 394.6c-3-7.8-10.6-12.2-17-9.8l-40 13.8c-6.4 2.4-9.2 10.8-6.2 18.6l72.2 191.6c3 8 10.6 12.4 17 10l40-14c6.4-2.4 9-10.6 6.2-18.6l-72.2-191.6zM788.4 279.2v0c-1-4.2-2.2-8-5.4-11.6-5.4-6-12.2-9-19.2-9-7.4 0-14.8 3.2-20.2 9.8l-68 77c-1.2 1.6-3 2.2-4.6 2.2-6.4 0-13.6-10.8-7.8-16.8l55.8-61.8c10.6-12.2 10.8-31 0.4-42.8-5-5.4-10.8-8-17-8-7.2 0-14.2 3.6-20 10l-64 71.2c-1.4 2.2-3.2 3.2-5 3.2-6 0-12.4-10-6-17.2l49.2-56.4c10.2-11.8 9.6-30-0.6-41.6-4.6-5.2-10.4-7.8-16.2-7.8-3.4 0-7 1-10.2 2.4-2-5.4-5-10.6-9-15 6-3.2 12.6-5.2 19-5.2 10.8 0 21 4.8 28.6 13.4 7.8 8.8 12 20.2 12.6 31.4 6.6-4 14.2-6.4 21.6-6.4 11 0 21.6 4.8 29.4 13.6s12 20.2 12.2 31.8c6.2-3.2 13-5 19.8-5 12 0 23.2 5 31.6 14.4 8 9 9.4 18.2 10.4 25.2 0.6 3.8-0.2 7.4-1.8 10.6-2-1.6-3.2-2.6-3.4-2.8l-12.2-8.8zM362.8 329.6l0.4 0.4 4 3.2c-33.4 34-53.8 59-53.8 59 32 81.6 68.4 181 68.4 181-0.2-5.6 18.6-15.6 22.6-17.2 6.4-2.6 13.2-3.8 20-3.8 2 0 3.8 0.2 5.8 0.2 20 2 38.8 13.6 56.6 23.6 11.8 6.6 26.6 13.6 40.6 13.6 6.6 0 13-1.6 18.8-5.6 5.4 3.4 10.6 6.4 15.8 9.4-1 1.2-2 2.4-3 3.2-9 7.2-19.8 11-31.6 11-18.6 0-36.6-9-48.6-15.6l-4.6-2.6c-15-8.6-30.6-17.4-45.4-18.8-1.4-0.2-2.8-0.2-4.2-0.2-5 0-9.8 0.8-14 2.6-3 1.2-10 5.2-13 7.8-2.2 5-6.4 9-12 10.2-1.2 0.2-2.4 0.4-3.6 0.4-6.8 0-13.2-4.4-15.8-11.4-0.4-1-36.6-100.2-68.2-180.6-2.4-6.2-1.4-13.2 2.8-18.4 0.8-1 21-25.8 54.2-59.4 2.2 2.6 4.8 5.4 7.8 8z" />
<glyph unicode="&#xe92d;" glyph-name="een-world" horiz-adv-x="1156" d="M445.6 491.2c-22.8-18.8-11.8-72.2 41.4-40 0 0 65 32.6 103 54 8.2 4.8 13.8 3.2 20.6-4.8 7.6-5.4 179.8-197.8 179.8-197.8s53 40.2 73.8 82.6c0 0-47.6 89.8-93.2 178.8-13.2-7.6-24.4-14.6-39.4-10.2-15.6 4.4-28.6 16.8-42.8 25-16.2 9.4-29.8 17.8-47.8 20.4-26.6 3.8-47.4-8-70.4-21.2-26-15-51.4-31.8-76-49.4-16.8-11.8-33.2-24.2-49-37.4zM479 191.8c-8.8 12.4-7.2 30.6 3.8 41l54.6 49.6c11 10.4 27.2 8.8 36.2-3.4v0c8.8-12.4 7.2-30.6-3.8-41l-54.6-49.6c-11-10.6-27.2-9-36.2 3.4v0zM428.6 237.4c-9 12.4-7.2 30.8 3.8 41l43 39.2c11.2 10.4 27.4 8.8 36.4-3.6v0c9-12.2 7.2-30.6-3.8-41l-43.2-39c-11-10.4-27.2-8.8-36.2 3.4v0zM367.6 275c-8.4 13-5.8 31.2 5.8 40.8l9.8 7.6c11.6 9.6 27.6 7 36-5.8l0.6-0.6c8.4-13 5.2-30.4-6.4-40l-9.6-7.6c-11.8-9.8-27.8-7.2-36.2 5.6v0zM609 219.6c-9.6 11.8-25.8 12.4-36.4 1.4l-23.6-24.4c-10.6-11-11.6-29.4-2.2-41.2 9.6-11.8 25.8-12.4 36.4-1.6l23.6 24.6c10.8 11 11.6 29.4 2.2 41.2zM945.6 426c4-7.4 1.8-16.2-4.6-19.6l-39.6-20.8c-6.6-3.4-15 0-18.8 7.4l-94.2 182c-4 7.4-1.8 16.2 4.6 19.6l39.6 20.8c6.4 3.4 14.8 0 18.6-7.4l94.4-182zM274.6 394.6c-3-7.8-10.6-12.2-17-9.8l-40 13.8c-6.4 2.4-9.2 10.8-6.2 18.6l72.2 191.6c3 8 10.6 12.4 17 10l40-14c6.4-2.4 9-10.6 6.2-18.6l-72.2-191.6zM788.4 279.2v0c-1-4.2-2.2-8-5.4-11.6-5.4-6-12.2-9-19.2-9-7.4 0-14.8 3.2-20.2 9.8l-68 77c-1.2 1.6-3 2.2-4.6 2.2-6.4 0-13.6-10.8-7.8-16.8l55.8-61.8c10.6-12.2 10.8-31 0.4-42.8-5-5.4-10.8-8-17-8-7.2 0-14.2 3.6-20 10l-64 71.2c-1.4 2.2-3.2 3.2-5 3.2-6 0-12.4-10-6-17.2l49.2-56.4c10.2-11.8 9.6-30-0.6-41.6-4.6-5.2-10.4-7.8-16.2-7.8-3.4 0-7 1-10.2 2.4-2-5.4-5-10.6-9-15 6-3.2 12.6-5.2 19-5.2 10.8 0 21 4.8 28.6 13.4 7.8 8.8 12 20.2 12.6 31.4 6.6-4 14.2-6.4 21.6-6.4 11 0 21.6 4.8 29.4 13.6s12 20.2 12.2 31.8c6.2-3.2 13-5 19.8-5 12 0 23.2 5 31.6 14.4 8 9 9.4 18.2 10.4 25.2 0.6 3.8-0.2 7.4-1.8 10.6-2-1.6-3.2-2.6-3.4-2.8l-12.2-8.8zM362.8 329.6l0.4 0.4 4 3.2c-33.4 34-53.8 59-53.8 59 32 81.6 68.4 181 68.4 181-0.2-5.6 18.6-15.6 22.6-17.2 6.4-2.6 13.2-3.8 20-3.8 2 0 3.8 0.2 5.8 0.2 20 2 38.8 13.6 56.6 23.6 11.8 6.6 26.6 13.6 40.6 13.6 6.6 0 13-1.6 18.8-5.6 5.4 3.4 10.6 6.4 15.8 9.4-1 1.2-2 2.4-3 3.2-9 7.2-19.8 11-31.6 11-18.6 0-36.6-9-48.6-15.6l-4.6-2.6c-15-8.6-30.6-17.4-45.4-18.8-1.4-0.2-2.8-0.2-4.2-0.2-5 0-9.8 0.8-14 2.6-3 1.2-10 5.2-13 7.8-2.2 5-6.4 9-12 10.2-1.2 0.2-2.4 0.4-3.6 0.4-6.8 0-13.2-4.4-15.8-11.4-0.4-1-36.6-100.2-68.2-180.6-2.4-6.2-1.4-13.2 2.8-18.4 0.8-1 21-25.8 54.2-59.4 2.2 2.6 4.8 5.4 7.8 8zM580.6 863l-38-20 7.2 42.4-30.8 30 42.6 6 19 38.6 19-38.6 42.4-6-30.6-30 7.2-42.4zM372.8 808.2l-22.8-36.4-15 40.4-41.6 10.6 33.8 26.6-2.8 42.8 35.6-23.8 40 15.8-11.6-41.4 27.4-33zM220.4 656.8l-1.8-42.8-33 27.4-41.2-11.6 15.8 39.8-23.8 35.8 42.8-2.8 26.6 33.6 10.6-41.6 40.4-14.8zM164 449.6l20-38-42.4 7.2-30-30.8-6 42.6-38.6 19 38.6 19 6 42.4 30-30.6 42.4 7.2zM218.8 241.8l36.4-22.8-40.4-15-10.6-41.6-26.6 33.8-42.8-2.8 23.8 35.6-15.8 40 41.4-11.6 33 27.4zM370.2 89.4l42.8-1.8-27.4-33 11.6-41.2-39.8 15.8-35.8-23.8 2.8 42.8-33.6 26.6 41.6 10.6 14.8 40.4zM577.4 33l38 20-7.2-42.4 30.8-30-42.6-6-19-38.6-19 38.6-42.4 6 30.6 30-7.2 42.4zM785.2 87.8l22.8 36.4 15-40.4 41.6-10.6-33.8-26.6 2.8-42.8-35.6 23.8-40-15.8 11.6 41.4-27.4 33zM937.6 239.2l1.8 42.8 33-27.4 41.2 11.6-15.8-39.8 23.8-35.8-42.8 2.8-26.6-33.6-10.6 41.6-40.4 14.8zM994 446.4l-20 38 42.4-7.2 30 30.8 6-42.6 38.6-19-38.6-19-6-42.4-30 30.6-42.4-7.2zM939.2 654.2l-36.4 22.8 40.4 15 10.6 41.6 26.6-33.8 42.8 2.8-23.8-35.6 15.8-40-41.4 11.6-33-27.4zM787.8 806.6l-42.8 1.8 27.4 33-11.6 41.2 39.8-15.8 35.8 23.8-2.8-42.8 33.6-26.6-41.6-10.6-14.8-40.4z" />
</font>
</defs>
</svg>
